<?xml version="1.0" standalone="no"?>
<!DOCTYPE svg PUBLIC "-//W3C//DTD SVG 1.1//EN" "http://www.w3.org/Graphics/SVG/1.1/DTD/svg11.dtd" >
<svg>
<metadata>
Created by FontForge 20090622 at Sun Jul 19 06:30:08 2020
 By deploy user
Copyright &#194;&#169; 2014 by Type Dynamic. All rights reserved.
</metadata>
<defs>
<font id="Sailec-Medium" horiz-adv-x="274" >
  <font-face 
    font-family="Sailec Medium"
    font-weight="500"
    font-stretch="normal"
    units-per-em="1000"
    panose-1="0 0 6 0 0 0 0 0 0 0"
    ascent="750"
    descent="-250"
    x-height="513"
    cap-height="748"
    bbox="-212 -337 1219 1070"
    underline-thickness="50"
    underline-position="-50"
    unicode-range="U+000D-U+FB02"
  />
<missing-glyph horiz-adv-x="717" 
d="M642 0h-567v748h567v-748zM224 668l136 -222l136 222h-272zM160 139l148 234l-148 233v-467zM413 373l144 -228v456zM226 80h269l-135 220z" />
    <glyph glyph-name="fi" unicode="fi" horiz-adv-x="633" 
d="M302 782q24 0 44 -3v-97q-18 2 -32 2q-43 0 -69.5 -26t-26.5 -71v-74h126v-97h-126v-416h-112v416h-97v97h97v71q0 92 53 145t143 53zM496 761q29 0 50 -20.5t21 -49.5t-21 -49.5t-50 -20.5t-49.5 20.5t-20.5 49.5t20.5 49.5t49.5 20.5zM552 0h-112v513h112v-513z" />
    <glyph glyph-name="f_j" unicode="fj" horiz-adv-x="633" 
d="M302 782q24 0 44 -3v-97q-18 2 -32 2q-43 0 -69.5 -26t-26.5 -71v-74h126v-97h-126v-416h-112v416h-97v97h97v71q0 92 53 145t143 53zM496 761q29 0 50 -20.5t21 -49.5t-21 -49.5t-50 -20.5t-49.5 20.5t-20.5 49.5t20.5 49.5t49.5 20.5zM553 513v-577q0 -92 -51.5 -144.5
t-139.5 -52.5q-24 0 -45 3v98q13 -3 32 -3q42 0 67 25.5t25 70.5v580h112z" />
    <glyph glyph-name=".notdef" horiz-adv-x="717" 
d="M642 0h-567v748h567v-748zM224 668l136 -222l136 222h-272zM160 139l148 234l-148 233v-467zM413 373l144 -228v456zM226 80h269l-135 220z" />
    <glyph glyph-name=".null" horiz-adv-x="0" 
 />
    <glyph glyph-name="nonmarkingreturn" horiz-adv-x="333" 
 />
    <glyph glyph-name="CR" unicode="&#xd;" horiz-adv-x="600" 
 />
    <glyph glyph-name="space" unicode=" " horiz-adv-x="233" 
 />
    <glyph glyph-name="exclam" unicode="!" horiz-adv-x="299" 
d="M208 214h-119l-6 534h131zM148 134q30 0 51.5 -21t21.5 -52q0 -29 -21.5 -50t-51.5 -21q-29 0 -50 21t-21 50q0 31 21 52t50 21z" />
    <glyph glyph-name="quotedbl" unicode="&#x22;" horiz-adv-x="370" 
d="M143 495h-88l-12 253h112zM314 495h-88l-12 253h112z" />
    <glyph glyph-name="numbersign" unicode="#" horiz-adv-x="650" 
d="M530 551h113l-22 -90h-113l-42 -177h117l-21 -90h-117l-46 -194h-99l47 194h-130l-46 -194h-99l46 194h-111l21 90h112l42 177h-116l22 90h115l48 197h98l-47 -197h129l48 197h98zM280 461l-42 -177h130l42 177h-130z" />
    <glyph glyph-name="dollar" unicode="$" horiz-adv-x="659" 
d="M612 211q0 -100 -63.5 -155t-166.5 -64v-110h-94v111q-105 12 -169.5 71t-67.5 153l121 7q4 -59 51.5 -95t118.5 -36q68 0 108.5 27t40.5 83q0 52 -40.5 75.5t-138.5 46.5q-59 15 -96 28t-74.5 37t-55.5 60.5t-18 88.5q0 86 56.5 146.5t163.5 70.5v109h94v-111
q94 -13 151 -69t60 -144l-121 -7q-3 56 -41.5 88.5t-101.5 32.5q-66 0 -102.5 -31t-36.5 -81q0 -52 36.5 -73.5t129.5 -43.5q132 -32 194 -77.5t62 -137.5z" />
    <glyph glyph-name="percent" unicode="%" horiz-adv-x="863" 
d="M204 758q75 0 122 -49.5t47 -132.5q0 -82 -47.5 -132.5t-121.5 -50.5t-121.5 50.5t-47.5 132.5q0 83 47.5 132.5t121.5 49.5zM229 0h-109l513 748h109zM204 679q-38 0 -62 -27.5t-24 -75.5t24 -76t62 -28t62 27.5t24 76.5q0 48 -23.5 75.5t-62.5 27.5zM658 355
q75 0 122 -49.5t47 -132.5q0 -82 -47.5 -132.5t-121.5 -50.5t-121.5 50.5t-47.5 132.5q0 83 47.5 132.5t121.5 49.5zM658 276q-39 0 -62.5 -27.5t-23.5 -75.5t24 -76t62 -28q39 0 62.5 27.5t23.5 76.5q0 48 -23.5 75.5t-62.5 27.5z" />
    <glyph glyph-name="ampersand" unicode="&#x26;" horiz-adv-x="707" 
d="M645 -10l-121 105q-94 -104 -230 -104q-121 0 -187 59.5t-66 152.5q0 69 32 118.5t92 91.5q-62 73 -62 148q0 95 59 146t157 51q86 0 144.5 -47.5t70.5 -130.5l-115 -9q-13 85 -100 85q-45 0 -71 -24t-26 -70q0 -10 1.5 -19.5t6 -19l8 -16.5t12 -17l12.5 -15t16 -16
t16.5 -14.5t18.5 -16t18 -15.5l175 -151q27 58 48 141l105 -28q-29 -105 -71 -185l129 -111zM296 92q86 0 149 72l-199 172l-13 12q-71 -53 -71 -134q0 -56 36 -89t98 -33z" />
    <glyph glyph-name="quotesingle" unicode="'" horiz-adv-x="199" 
d="M143 495h-88l-12 253h112z" />
    <glyph glyph-name="parenleft" unicode="(" 
d="M159 731l97 -34q-105 -174 -105 -377q0 -202 105 -376l-97 -35q-120 182 -120 411q0 231 120 411z" />
    <glyph glyph-name="parenright" unicode=")" 
d="M19 697l97 34q120 -180 120 -411q0 -229 -120 -411l-97 35q105 174 105 376q0 203 -105 377z" />
    <glyph glyph-name="asterisk" unicode="*" horiz-adv-x="349" 
d="M204 637l116 40l20 -60l-117 -37l74 -97l-52 -38l-70 100l-71 -101l-51 39l73 97l-117 37l20 60l116 -40l-2 123h63z" />
    <glyph glyph-name="plus" unicode="+" horiz-adv-x="547" 
d="M328 421h187v-102h-187v-192h-109v192h-187v102h187v188h109v-188z" />
    <glyph glyph-name="comma" unicode="," horiz-adv-x="221" 
d="M111 133q32 0 49.5 -22t17.5 -58q0 -137 -130 -207v48q51 37 62 97q-29 2 -48.5 22t-19.5 48q0 30 19.5 51t49.5 21z" />
    <glyph glyph-name="hyphen" unicode="-" horiz-adv-x="404" 
d="M359 209h-314v105h314v-105z" />
    <glyph glyph-name="period" unicode="." horiz-adv-x="227" 
d="M113 134q30 0 51.5 -21t21.5 -52q0 -29 -21.5 -50t-51.5 -21q-29 0 -50 21t-21 50q0 31 21 52t50 21z" />
    <glyph glyph-name="slash" unicode="/" horiz-adv-x="390" 
d="M127 -67h-118l255 815h117z" />
    <glyph glyph-name="zero" unicode="0" horiz-adv-x="647" 
d="M324 758q126 0 200.5 -100.5t74.5 -283.5q0 -182 -75 -283t-200 -101q-126 0 -201 101t-75 283q0 183 75 283.5t201 100.5zM324 652q-155 0 -155 -278t155 -278q154 0 154 278t-154 278z" />
    <glyph glyph-name="one" unicode="1" horiz-adv-x="381" 
d="M296 0h-118v591l-114 -84l-57 94l202 147h87v-748z" />
    <glyph glyph-name="two" unicode="2" horiz-adv-x="539" 
d="M276 758q105 0 163 -55.5t58 -155.5q0 -85 -36.5 -151.5t-104.5 -140.5l-139 -149h287v-106h-451v98l215 230q64 68 87 110t23 104q0 51 -26 80.5t-73 29.5q-107 0 -109 -130l-119 7q2 108 61 168.5t164 60.5z" />
    <glyph glyph-name="three" unicode="3" horiz-adv-x="562" 
d="M278 758q104 0 163.5 -57t59.5 -154q0 -114 -99 -160q50 -14 82.5 -59.5t32.5 -111.5q0 -105 -65 -165.5t-172 -60.5q-112 0 -174 59t-67 164l119 7q10 -124 121 -124q56 0 87 32t31 90q0 57 -34 86t-92 29h-75v106h73q49 0 80.5 29t31.5 79q0 51 -27 78t-76 27
q-50 0 -78.5 -30.5t-31.5 -85.5l-118 6q3 101 62.5 158.5t165.5 57.5z" />
    <glyph glyph-name="four" unicode="4" horiz-adv-x="599" 
d="M458 263h117v-106h-117v-157h-117v157h-314v98l331 493h100v-485zM158 263h182v270z" />
    <glyph glyph-name="five" unicode="5" horiz-adv-x="564" 
d="M294 466q100 0 163 -62t63 -171q0 -110 -65 -176.5t-177 -66.5q-108 0 -170 57.5t-67 157.5l119 7q10 -116 119 -116q58 0 90 37t32 97t-32 95t-87 35q-58 0 -105 -36h-110v424h424v-105h-306v-204q46 27 109 27z" />
    <glyph glyph-name="six" unicode="6" horiz-adv-x="599" 
d="M497 748l-193 -263q110 -2 181.5 -70.5t71.5 -178.5q0 -111 -72.5 -178.5t-183.5 -67.5q-112 0 -184.5 67.5t-72.5 178.5q0 84 53 158l258 354h142zM301 96q60 0 98 39t38 105t-37.5 103.5t-98.5 37.5q-72 0 -108 -48q-28 -37 -28 -93q0 -66 37.5 -105t98.5 -39z" />
    <glyph glyph-name="seven" unicode="7" horiz-adv-x="540" 
d="M513 652l-325 -652h-131l325 643h-361v105h492v-96z" />
    <glyph glyph-name="eight" unicode="8" horiz-adv-x="606" 
d="M302 758q102 0 167.5 -55t65.5 -150q0 -107 -92 -156q51 -25 81 -72t30 -110q0 -103 -70.5 -164t-180.5 -61t-180.5 61t-70.5 164q0 63 29.5 109.5t80.5 71.5q-92 48 -92 157q0 95 65 150t167 55zM303 652q-50 0 -82 -28t-32 -77q0 -48 32.5 -75.5t81.5 -27.5
q50 0 82 27.5t32 75.5q0 49 -32 77t-82 28zM302 340q-57 0 -94.5 -32.5t-37.5 -89.5q0 -56 37.5 -89t94.5 -33q58 0 95.5 33t37.5 89q0 57 -37 89.5t-96 32.5z" />
    <glyph glyph-name="nine" unicode="9" horiz-adv-x="599" 
d="M298 758q112 0 184.5 -67.5t72.5 -178.5q0 -84 -53 -158l-258 -354h-142l193 263q-110 2 -181.5 70.5t-71.5 178.5q0 111 72.5 178.5t183.5 67.5zM298 367q72 0 108 48q28 37 28 93q0 66 -37.5 105t-98.5 39q-60 0 -98 -39t-38 -105t38 -103.5t98 -37.5z" />
    <glyph glyph-name="colon" unicode=":" horiz-adv-x="227" 
d="M107 523q30 0 51.5 -21t21.5 -52q0 -29 -21.5 -50t-51.5 -21q-29 0 -50 21t-21 50q0 31 21 52t50 21zM107 134q30 0 51.5 -21t21.5 -52q0 -29 -21.5 -50t-51.5 -21q-29 0 -50 21t-21 50q0 31 21 52t50 21z" />
    <glyph glyph-name="semicolon" unicode=";" horiz-adv-x="227" 
d="M107 379q-29 0 -50 21t-21 50q0 31 21 52t50 21q30 0 51.5 -21t21.5 -52q0 -29 -21.5 -50t-51.5 -21zM111 133q32 0 49.5 -22t17.5 -58q0 -137 -130 -207v48q51 37 62 97q-29 2 -48.5 22t-19.5 48q0 30 19.5 51t49.5 21z" />
    <glyph glyph-name="less" unicode="&#x3c;" horiz-adv-x="527" 
d="M495 489l-246 -120l246 -120l-1 -127l-466 247l466 247z" />
    <glyph glyph-name="equal" unicode="=" horiz-adv-x="547" 
d="M515 437h-483v106h483v-106zM515 195h-483v106h483v-106z" />
    <glyph glyph-name="greater" unicode="&#x3e;" horiz-adv-x="527" 
d="M499 369l-466 -247l-1 127l246 120l-246 120l1 127z" />
    <glyph glyph-name="question" unicode="?" horiz-adv-x="516" 
d="M259 759q111 0 175 -60.5t64 -159.5q0 -59 -26 -96t-77 -76q-42 -32 -60.5 -59t-18.5 -65v-29h-119v34q0 47 23.5 83t72.5 76q42 33 62.5 61.5t20.5 68.5q0 53 -31 85t-86 32t-86.5 -30.5t-36.5 -85.5l-119 8q5 98 70.5 155.5t171.5 57.5zM255 134q30 0 51.5 -21
t21.5 -52q0 -29 -21.5 -50t-51.5 -21q-29 0 -50 21t-21 50q0 31 21 52t50 21z" />
    <glyph glyph-name="at" unicode="@" horiz-adv-x="812" 
d="M406 609q158 0 261.5 -103t103.5 -260q0 -100 -41 -152.5t-113 -52.5q-75 0 -97 55q-47 -58 -135 -58q-85 0 -137 57t-52 152q0 96 52 153t137 57q93 0 129 -55v42h82v-282q0 -49 42 -49q29 0 47 35t18 98q0 128 -85 213t-212 85q-129 0 -213 -85t-84 -213
q0 -131 85 -213.5t207 -82.5q105 0 183 47l18 -63q-83 -50 -201 -50q-153 0 -256.5 101.5t-103.5 260.5q0 157 103 260t262 103zM510 237v21q0 59 -30 90.5t-81 31.5q-52 0 -83.5 -35t-31.5 -98t31.5 -98t83.5 -35q51 0 81 32t30 91z" />
    <glyph glyph-name="A" unicode="A" horiz-adv-x="759" 
d="M746 0h-131l-69 167h-334l-70 -167h-130l316 748h101zM258 273h243l-121 291z" />
    <glyph glyph-name="B" unicode="B" horiz-adv-x="695" 
d="M84 748h294q102 0 164.5 -52t62.5 -151q0 -113 -84 -154q52 -17 84 -63t32 -116q0 -103 -65 -157.5t-170 -54.5h-318v748zM202 643v-209h179q103 0 103 103q0 52 -32.5 79t-87.5 27h-162zM202 332v-226h186q57 0 92 27.5t35 84.5q0 58 -34.5 86t-87.5 28h-191z" />
    <glyph glyph-name="C" unicode="C" horiz-adv-x="816" 
d="M426 758q136 0 232.5 -76t114.5 -204l-124 -11q-15 88 -76 136.5t-151 48.5q-112 0 -180 -75t-68 -203q0 -131 70 -204.5t179 -73.5q89 0 149.5 46.5t76.5 131.5l125 -11q-22 -126 -117 -199.5t-230 -73.5q-164 0 -269 103t-105 281t104 281t269 103z" />
    <glyph glyph-name="D" unicode="D" horiz-adv-x="801" 
d="M84 748h299q161 0 263 -100.5t102 -273.5t-103 -273.5t-264 -100.5h-297v748zM202 646v-544h180q112 0 179.5 70.5t67.5 201.5t-67 201.5t-179 70.5h-181z" />
    <glyph glyph-name="E" unicode="E" horiz-adv-x="597" 
d="M554 643h-351v-206h307v-103h-307v-228h351v-106h-470v748h470v-105z" />
    <glyph glyph-name="F" unicode="F" horiz-adv-x="585" 
d="M554 643h-351v-209h290v-105h-290v-329h-119v748h470v-105z" />
    <glyph glyph-name="G" unicode="G" horiz-adv-x="827" 
d="M775 392v-39q0 -166 -94.5 -264.5t-255.5 -98.5q-163 0 -267.5 103.5t-104.5 280.5q0 178 103.5 281t267.5 103q131 0 225 -69.5t119 -191.5l-123 -20q-15 82 -74 128.5t-148 46.5q-114 0 -181.5 -71.5t-67.5 -206.5q0 -134 68 -206t181 -72q91 0 150 47.5t73 143.5h-221
v105h350z" />
    <glyph glyph-name="H" unicode="H" horiz-adv-x="757" 
d="M674 0h-119v333h-352v-333h-119v748h119v-309h352v309h119v-748z" />
    <glyph glyph-name="I" unicode="I" horiz-adv-x="286" 
d="M203 0h-119v748h119v-748z" />
    <glyph glyph-name="J" unicode="J" horiz-adv-x="594" 
d="M516 748v-498q0 -123 -65.5 -191.5t-180.5 -68.5q-110 0 -176.5 64t-72.5 177l119 19q4 -73 38 -113.5t93 -40.5q61 0 93.5 38.5t32.5 112.5v501h119z" />
    <glyph glyph-name="K" unicode="K" horiz-adv-x="695" 
d="M374 434l311 -434h-146l-245 340l-91 -105v-235h-119v748h119v-335l291 335h153z" />
    <glyph glyph-name="L" unicode="L" horiz-adv-x="591" 
d="M203 106h354v-106h-473v748h119v-642z" />
    <glyph glyph-name="M" unicode="M" horiz-adv-x="978" 
d="M894 0h-118v481l-247 -475h-78l-248 475v-481h-119v748h105l301 -568l300 568h104v-748z" />
    <glyph glyph-name="N" unicode="N" horiz-adv-x="756" 
d="M673 0h-101l-369 528v-528h-119v748h100l370 -529v529h119v-748z" />
    <glyph glyph-name="O" unicode="O" horiz-adv-x="870" 
d="M435 758q166 0 273.5 -104.5t107.5 -279.5t-107.5 -279.5t-273.5 -104.5q-167 0 -274.5 104.5t-107.5 279.5t107.5 279.5t274.5 104.5zM435 652q-115 0 -188 -74.5t-73 -203.5q0 -128 73 -203t188 -75q114 0 187 75t73 203q0 129 -73 203.5t-187 74.5z" />
    <glyph glyph-name="P" unicode="P" horiz-adv-x="657" 
d="M84 748h306q105 0 170 -61t65 -172q0 -110 -65.5 -171.5t-169.5 -61.5h-187v-282h-119v748zM202 643v-255h173q56 0 92 33t36 94q0 62 -36 95t-92 33h-173z" />
    <glyph glyph-name="Q" unicode="Q" horiz-adv-x="873" 
d="M776 -77l-126 125q-93 -58 -215 -58q-167 0 -274.5 104.5t-107.5 279.5t107.5 279.5t274.5 104.5q166 0 273.5 -104.5t107.5 -279.5q0 -146 -78 -246l121 -120zM435 96q73 0 133 33l-133 133l83 84l135 -134q42 67 42 162q0 129 -73 203.5t-187 74.5q-115 0 -188 -74.5
t-73 -203.5q0 -128 73 -203t188 -75z" />
    <glyph glyph-name="R" unicode="R" horiz-adv-x="695" 
d="M526 0l-158 286h-165v-286h-119v748h302q105 0 170 -60.5t65 -170.5q0 -79 -34.5 -132.5t-94.5 -78.5l168 -306h-134zM202 392h169q56 0 92 32.5t36 92.5q0 61 -36 93.5t-92 32.5h-169v-251z" />
    <glyph glyph-name="S" unicode="S" horiz-adv-x="659" 
d="M327 758q117 0 189.5 -58t76.5 -159l-121 -7q-3 56 -41.5 88.5t-101.5 32.5q-66 0 -102.5 -31t-36.5 -81q0 -52 36.5 -73.5t129.5 -43.5q132 -32 194 -77.5t62 -137.5q0 -110 -75.5 -165.5t-194.5 -55.5q-126 0 -206.5 60t-84.5 167l121 7q4 -59 51.5 -95t118.5 -36
q68 0 108.5 27t40.5 83q0 52 -40.5 75.5t-138.5 46.5q-59 15 -96 28t-74.5 37t-55.5 60.5t-18 88.5q0 94 67 156.5t192 62.5z" />
    <glyph glyph-name="T" unicode="T" horiz-adv-x="687" 
d="M669 643h-266v-643h-119v643h-266v105h651v-105z" />
    <glyph glyph-name="U" unicode="U" horiz-adv-x="770" 
d="M692 748v-457q0 -143 -82 -222t-225 -79t-225 79t-82 222v457h119v-455q0 -97 48.5 -147t139.5 -50q90 0 139 50.5t49 146.5v455h119z" />
    <glyph glyph-name="V" unicode="V" horiz-adv-x="762" 
d="M431 0h-100l-314 748h130l234 -562l234 562h131z" />
    <glyph glyph-name="W" unicode="W" horiz-adv-x="1121" 
d="M844 0h-100l-183 529l-182 -529h-101l-261 748h128l185 -537l182 537h98l183 -537l184 537h128z" />
    <glyph glyph-name="X" unicode="X" horiz-adv-x="707" 
d="M441 380l244 -380h-138l-193 301l-194 -301h-138l244 380l-232 368h137l183 -288l182 288h137z" />
    <glyph glyph-name="Y" unicode="Y" horiz-adv-x="715" 
d="M417 301v-301h-118v301l-284 447h138l205 -329l204 329h138z" />
    <glyph glyph-name="Z" unicode="Z" horiz-adv-x="621" 
d="M577 658l-389 -552h398v-106h-550v90l388 553h-378v105h531v-90z" />
    <glyph glyph-name="bracketleft" unicode="[" horiz-adv-x="283" 
d="M262 624h-94v-607h94v-94h-206v795h206v-94z" />
    <glyph glyph-name="backslash" unicode="\" horiz-adv-x="390" 
d="M381 -67h-117l-255 815h117z" />
    <glyph glyph-name="bracketright" unicode="]" horiz-adv-x="283" 
d="M228 -77h-206v94h94v607h-94v94h206v-795z" />
    <glyph glyph-name="asciicircum" unicode="^" horiz-adv-x="573" 
d="M544 373h-127l-130 215l-131 -215h-127l258 391z" />
    <glyph glyph-name="underscore" unicode="_" horiz-adv-x="686" 
d="M641 -106h-596v106h596v-106z" />
    <glyph glyph-name="grave" unicode="`" horiz-adv-x="250" 
d="M236 596h-88l-134 191h128z" />
    <glyph glyph-name="a" unicode="a" horiz-adv-x="548" 
d="M267 522q99 0 152 -52.5t53 -150.5v-319h-113v46q-59 -56 -139 -56q-78 0 -124.5 39.5t-46.5 110.5q0 144 188 155l122 7v15q0 107 -91 107q-45 0 -68.5 -25t-23.5 -62l-113 4q0 72 56 126.5t148 54.5zM360 215l-107 -7q-91 -5 -91 -66q0 -58 77 -58q56 0 88.5 28.5
t32.5 84.5v18z" />
    <glyph glyph-name="b" unicode="b" horiz-adv-x="652" 
d="M193 777v-326q22 32 65 51.5t98 19.5q109 0 178 -72.5t69 -193.5t-69 -193.5t-178 -72.5q-58 0 -102.5 22.5t-66.5 58.5v-71h-106v777h112zM338 426q-65 0 -105 -41t-40 -115v-27q0 -74 40 -115t105 -41q67 0 109 44.5t42 124.5t-42 125t-109 45z" />
    <glyph glyph-name="c" unicode="c" horiz-adv-x="584" 
d="M306 522q94 0 158.5 -52t77.5 -142l-110 -10q-6 50 -40.5 79t-85.5 29q-64 0 -103.5 -45t-39.5 -125q0 -79 40 -124t103 -45q52 0 85.5 27t41.5 75l110 -10q-15 -87 -79 -138t-158 -51q-113 0 -185 71.5t-72 194.5q0 124 71.5 195t185.5 71z" />
    <glyph glyph-name="d" unicode="d" horiz-adv-x="652" 
d="M571 0h-106v71q-22 -36 -66.5 -58.5t-102.5 -22.5q-109 0 -178 72.5t-69 193.5t69 193.5t178 72.5q55 0 98 -19.5t65 -51.5v326h112v-777zM314 426q-67 0 -109 -45t-42 -125t42 -124.5t109 -44.5q65 0 105 41t40 115v27q0 74 -40 115t-105 41z" />
    <glyph glyph-name="e" unicode="e" horiz-adv-x="594" 
d="M545 214h-377q4 -58 41 -92.5t96 -34.5q100 0 122 73l113 -6q-15 -70 -80 -117t-152 -47q-115 0 -187 71.5t-72 194.5t71 194.5t185 71.5q110 0 175 -68t65 -185v-55zM304 426q-57 0 -94 -32.5t-41 -91.5h263q-2 57 -34.5 90.5t-93.5 33.5z" />
    <glyph glyph-name="f" unicode="f" horiz-adv-x="359" 
d="M302 782q24 0 44 -3v-97q-18 2 -32 2q-43 0 -69.5 -26t-26.5 -71v-74h126v-97h-126v-416h-112v416h-97v97h97v71q0 92 53 145t143 53z" />
    <glyph glyph-name="g" unicode="g" horiz-adv-x="646" 
d="M296 522q58 0 102.5 -22.5t66.5 -58.5v72h106v-538q0 -110 -68.5 -174.5t-183.5 -64.5q-110 0 -174.5 50.5t-80.5 137.5l112 4q7 -45 45 -71t95 -26q65 0 104 35.5t39 100.5v94q-22 -32 -65 -51.5t-98 -19.5q-109 0 -178 72.5t-69 193.5t69 193.5t178 72.5zM314 425
q-67 0 -109 -44.5t-42 -124.5t42 -125t109 -45q65 0 105 41t40 115v27q0 74 -40 115t-105 41z" />
    <glyph glyph-name="h" unicode="h" horiz-adv-x="609" 
d="M193 777v-322q45 67 144 67q89 0 144.5 -57.5t55.5 -155.5v-309h-113v294q0 57 -30.5 90.5t-81.5 33.5q-53 0 -86 -35.5t-33 -89.5v-293h-112v777h112z" />
    <glyph glyph-name="i" unicode="i" 
d="M137 761q29 0 50 -20.5t21 -49.5t-21 -49.5t-50 -20.5t-49.5 20.5t-20.5 49.5t20.5 49.5t49.5 20.5zM193 0h-112v513h112v-513z" />
    <glyph glyph-name="j" unicode="j" 
d="M137 761q29 0 50 -20.5t21 -49.5t-21 -49.5t-50 -20.5t-49.5 20.5t-20.5 49.5t20.5 49.5t49.5 20.5zM194 513v-577q0 -92 -51.5 -144.5t-139.5 -52.5q-24 0 -45 3v98q14 -3 32 -3q42 0 67 25.5t25 70.5v580h112z" />
    <glyph glyph-name="k" unicode="k" horiz-adv-x="557" 
d="M193 307l199 206h137l-206 -221l227 -292h-142l-164 208l-51 -52v-156h-112v777h112v-470z" />
    <glyph glyph-name="l" unicode="l" 
d="M193 0h-112v777h112v-777z" />
    <glyph glyph-name="m" unicode="m" horiz-adv-x="933" 
d="M665 522q86 0 139 -58t53 -153v-311h-113v294q0 58 -28 91t-79 33q-47 0 -76.5 -29.5t-34.5 -76.5v-3v-309h-113v294q0 57 -28.5 90.5t-74.5 33.5q-52 0 -84.5 -35.5t-32.5 -89.5v-293h-112v513h106v-68q44 77 148 77q112 0 163 -93q53 93 167 93z" />
    <glyph glyph-name="n" unicode="n" horiz-adv-x="613" 
d="M337 522q89 0 144.5 -57.5t55.5 -155.5v-309h-113v294q0 57 -30.5 90.5t-81.5 33.5q-53 0 -86 -35.5t-33 -89.5v-293h-112v513h106v-68q44 77 150 77z" />
    <glyph glyph-name="o" unicode="o" horiz-adv-x="634" 
d="M317 522q116 0 191.5 -73t75.5 -193t-75.5 -193t-191.5 -73q-117 0 -192.5 73t-75.5 193t75.5 193t192.5 73zM317 426q-68 0 -111 -45.5t-43 -124.5q0 -78 43 -123.5t111 -45.5t111 45.5t43 123.5q0 79 -43 124.5t-111 45.5z" />
    <glyph glyph-name="p" unicode="p" horiz-adv-x="652" 
d="M356 522q109 0 178 -72.5t69 -193.5t-69 -193.5t-178 -72.5q-55 0 -98 19.5t-65 51.5v-316h-112v768h106v-72q22 36 66.5 58.5t102.5 22.5zM338 425q-65 0 -105 -41t-40 -115v-27q0 -74 40 -115t105 -41q67 0 109 45t42 125t-42 124.5t-109 44.5z" />
    <glyph glyph-name="q" unicode="q" horiz-adv-x="652" 
d="M296 522q58 0 102.5 -22.5t66.5 -58.5v72h106v-768h-112v316q-22 -32 -65 -51.5t-98 -19.5q-109 0 -178 72.5t-69 193.5t69 193.5t178 72.5zM314 425q-67 0 -109 -44.5t-42 -124.5t42 -125t109 -45q65 0 105 41t40 115v27q0 74 -40 115t-105 41z" />
    <glyph glyph-name="r" unicode="r" horiz-adv-x="357" 
d="M336 519v-109q-65 0 -104 -37t-39 -94v-279h-112v513h109v-72q37 78 146 78z" />
    <glyph glyph-name="s" unicode="s" horiz-adv-x="502" 
d="M246 522q88 0 138.5 -45.5t58.5 -117.5l-112 -6q-7 73 -88 73q-80 0 -80 -57q0 -7 1.5 -13t5 -11t7 -8.5t11 -7t12.5 -5.5t16 -5t17.5 -4.5l20 -4.5t21.5 -5q90 -23 133.5 -55t43.5 -96q0 -77 -53.5 -120.5t-147.5 -43.5q-91 0 -146 43.5t-64 120.5l112 7q9 -74 100 -74
q39 0 63 15t24 43q0 30 -22 43t-89 29q-47 11 -73 20t-53.5 25.5t-39.5 42t-12 62.5q0 70 51.5 112.5t143.5 42.5z" />
    <glyph glyph-name="t" unicode="t" horiz-adv-x="378" 
d="M303 93q18 0 48 5v-100q-38 -6 -75 -6q-79 0 -125 41t-45 125l1 258h-95v97h95l1 174h113l-1 -174h130v-97h-131l-1 -235q0 -88 85 -88z" />
    <glyph glyph-name="u" unicode="u" horiz-adv-x="596" 
d="M515 0h-106v67q-16 -32 -53 -54.5t-92 -22.5q-86 0 -137 56.5t-51 150.5v316h112v-299q0 -56 27 -87.5t77 -31.5q51 0 81 36.5t30 88.5v293h112v-513z" />
    <glyph glyph-name="v" unicode="v" horiz-adv-x="549" 
d="M320 0h-90l-222 513h123l144 -343l142 343h124z" />
    <glyph glyph-name="w" unicode="w" horiz-adv-x="832" 
d="M628 0h-90l-122 325l-123 -325h-89l-196 513h121l123 -330l124 330h79l125 -330l123 330h121z" />
    <glyph glyph-name="x" unicode="x" horiz-adv-x="532" 
d="M348 261l171 -261h-134l-119 184l-120 -184h-131l166 263l-162 250h133l114 -176l112 176h133z" />
    <glyph glyph-name="y" unicode="y" horiz-adv-x="549" 
d="M212 -255h-123l126 291l-203 477h125l138 -351l138 351h125z" />
    <glyph glyph-name="z" unicode="z" horiz-adv-x="451" 
d="M409 438l-245 -347h255v-91h-386v74l246 347h-240v92h370v-75z" />
    <glyph glyph-name="braceleft" unicode="{" 
d="M252 624h-6q-48 0 -63 -34t-1 -113q6 -40 7 -73t-14 -55.5t-49 -27.5q49 -8 59.5 -53.5t-3.5 -103.5q-13 -79 1.5 -113t62.5 -34h6v-94h-6q-100 0 -149.5 59.5t-25.5 171.5q18 59 10.5 89.5t-54.5 30.5h-8v93h8q47 0 54.5 30.5t-10.5 89.5q-24 112 25.5 171.5t149.5 59.5
h6v-94z" />
    <glyph glyph-name="bar" unicode="|" horiz-adv-x="269" 
d="M190 -67h-112v815h112v-815z" />
    <glyph glyph-name="braceright" unicode="}" 
d="M22 718h6q101 0 150 -59.5t25 -171.5q-17 -59 -10 -89.5t54 -30.5h8v-93h-8q-47 0 -54 -30.5t10 -89.5q24 -112 -25 -171.5t-150 -59.5h-6v94h6q48 0 62.5 34t1.5 113q-14 58 -3.5 103.5t59.5 53.5q-34 5 -49 27.5t-14 55.5t7 73q14 79 -1 113t-63 34h-6v94z" />
    <glyph glyph-name="asciitilde" unicode="~" horiz-adv-x="539" 
d="M472 450l51 -74q-68 -88 -155 -88q-46 0 -101 30t-88 30q-36 0 -61 -12.5t-51 -43.5l-51 75q67 86 152 86q39 0 94 -30t95 -30q38 0 64 13t51 44z" />
    <glyph glyph-name="exclamdown" unicode="&#xa1;" horiz-adv-x="299" 
d="M151 366q-30 0 -51.5 21t-21.5 52q0 29 21.5 50t51.5 21q29 0 50 -21t21 -50q0 -31 -21 -52t-50 -21zM91 286h119l6 -534h-131z" />
    <glyph glyph-name="cent" unicode="&#xa2;" horiz-adv-x="584" 
d="M433 189l110 -10q-13 -77 -64.5 -126t-128.5 -60v-111h-94v112q-93 15 -150 84.5t-57 177.5q0 109 56.5 178t150.5 84v109h94v-108q77 -12 129 -62.5t63 -128.5l-110 -10q-6 50 -40.5 79t-85.5 29q-64 0 -103.5 -45t-39.5 -125q0 -79 40 -124t103 -45q52 0 85.5 27
t41.5 75z" />
    <glyph glyph-name="sterling" unicode="&#xa3;" horiz-adv-x="555" 
d="M530 106v-106h-498v97q59 19 82 63.5t16 125.5l-3 32h-99v94h91l-7 88q-11 123 40.5 190.5t163.5 67.5q98 0 150 -51.5t54 -141.5l-118 -6q0 43 -22.5 68.5t-65.5 25.5q-102 0 -91 -132l9 -109h163v-94h-155l3 -34q10 -111 -66 -178h353z" />
    <glyph glyph-name="currency" unicode="&#xa4;" horiz-adv-x="594" 
d="M480 252q0 -59 -23 -105l115 -115l-71 -70l-115 114q-38 -21 -89 -21q-48 0 -89 22l-115 -115l-71 70l116 116q-24 48 -24 104q0 59 25 104l-117 117l71 71l116 -116q41 22 88 22t88 -22l116 116l71 -71l-116 -116q24 -48 24 -105zM205 252q0 -55 25.5 -86t66.5 -31
q40 0 65.5 31.5t25.5 85.5q0 55 -25.5 86.5t-65.5 31.5q-41 0 -66.5 -31.5t-25.5 -86.5z" />
    <glyph glyph-name="yen" unicode="&#xa5;" horiz-adv-x="715" 
d="M449 351h106v-70h-138v-80h138v-71h-138v-130h-118v130h-138v71h138v80h-138v70h106l-252 397h138l205 -329l204 329h138z" />
    <glyph glyph-name="brokenbar" unicode="&#xa6;" horiz-adv-x="269" 
d="M190 429h-112v319h112v-319zM190 -67h-112v319h112v-319z" />
    <glyph glyph-name="section" unicode="&#xa7;" horiz-adv-x="522" 
d="M416 254q60 -38 60 -116q0 -76 -58 -121t-156 -45q-101 0 -160.5 43.5t-59.5 119.5l112 5q2 -79 109 -79q47 0 74 18t27 53q0 34 -26.5 49t-94.5 30q-99 21 -149 56.5t-50 105.5t63 115q-52 36 -52 110q0 73 54.5 116.5t144.5 43.5q95 0 150 -41t56 -113l-112 -4
q-1 69 -93 69q-40 0 -64 -17t-24 -51q0 -31 24 -45t86 -27q101 -21 150 -57t49 -105q0 -71 -60 -113zM147 378q0 -19 8 -31.5t29.5 -22t40.5 -14.5t60 -13l42 -9q45 31 45 74q0 16 -7 27.5t-15.5 18.5t-30 14t-36.5 10.5t-49 10.5q-28 6 -41 10q-46 -31 -46 -75z" />
    <glyph glyph-name="dieresis" unicode="&#xa8;" horiz-adv-x="328" 
d="M80 743q26 0 45 -18.5t19 -44.5q0 -27 -18.5 -45t-45.5 -18t-45.5 18t-18.5 45q0 26 18.5 44.5t45.5 18.5zM248 743q27 0 45.5 -18.5t18.5 -44.5q0 -27 -18.5 -45t-45.5 -18t-45.5 18t-18.5 45q0 26 19 44.5t45 18.5z" />
    <glyph glyph-name="copyright" unicode="&#xa9;" horiz-adv-x="588" 
d="M295 760q112 0 188 -73t76 -181t-76 -181t-188 -73q-114 0 -190 73t-76 181t76 181t190 73zM294 720q-96 0 -158 -60.5t-62 -153.5t62 -153.5t158 -60.5q95 0 157.5 60.5t62.5 153.5q0 92 -62.5 153t-157.5 61zM295 663q56 0 95 -31t46 -83l-64 -4q-5 30 -26 46.5
t-52 16.5q-38 0 -62 -27.5t-24 -73.5q0 -47 25 -74t62 -27q30 0 51 16t26 44l65 -4q-9 -51 -47.5 -81.5t-93.5 -30.5q-66 0 -109 43t-43 114q0 72 42.5 114t108.5 42z" />
    <glyph glyph-name="ordfeminine" unicode="&#xaa;" horiz-adv-x="448" 
d="M221 756q169 0 169 -163v-256h-95v40q-39 -48 -122 -48q-63 0 -99.5 31t-36.5 88q0 116 171 127l81 5v20q0 33 -17.5 51.5t-50.5 18.5q-35 0 -54.5 -19t-19.5 -46l-99 3q0 58 47.5 103t125.5 45zM290 511l-74 -5q-77 -5 -77 -53q0 -45 56 -47q38 -1 66.5 22t28.5 67v16z
" />
    <glyph glyph-name="guillemotleft" unicode="&#xab;" horiz-adv-x="553" 
d="M276 426l-135 -170l135 -171l-89 -56l-172 227l172 226zM534 426l-135 -170l135 -171l-89 -56l-172 227l172 226z" />
    <glyph glyph-name="logicalnot" unicode="&#xac;" horiz-adv-x="576" 
d="M534 157h-88v185h-410v88h498v-273z" />
    <glyph glyph-name="registered" unicode="&#xae;" horiz-adv-x="588" 
d="M295 760q112 0 188 -73t76 -181t-76 -181t-188 -73q-114 0 -190 73t-76 181t76 181t190 73zM294 292q95 0 157.5 60.5t62.5 153.5q0 92 -62.5 153t-157.5 61q-96 0 -158 -60.5t-62 -153.5t62 -153.5t158 -60.5zM410 563q0 -63 -47 -86l62 -124h-69l-56 113h-55v-113h-62
v306h131q43 0 69.5 -25.5t26.5 -70.5zM245 517h52q49 0 49 46q0 45 -49 45h-52v-91z" />
    <glyph glyph-name="macron" unicode="&#xaf;" horiz-adv-x="304" 
d="M291 628h-279v87h279v-87z" />
    <glyph glyph-name="degree" unicode="&#xb0;" horiz-adv-x="360" 
d="M180 757q68 0 110 -38t42 -106v-22q0 -67 -42 -105.5t-110 -38.5t-109.5 38.5t-41.5 105.5v22q0 68 41 106t110 38zM180 688q-34 0 -54 -20.5t-20 -58.5v-14q0 -37 20 -58t54 -21t54 21t20 58v14q0 37 -20 58t-54 21z" />
    <glyph glyph-name="plusminus" unicode="&#xb1;" horiz-adv-x="547" 
d="M328 526h187v-102h-187v-192h-109v192h-187v102h187v188h109v-188zM515 69h-483v105h483v-105z" />
    <glyph glyph-name="acute" unicode="&#xb4;" horiz-adv-x="250" 
d="M102 596h-88l95 191h127z" />
    <glyph glyph-name="paragraph" unicode="&#xb6;" horiz-adv-x="686" 
d="M667 664h-69v-731h-88v731h-115v-731h-87v441h-59q-95 0 -152 48.5t-57 139.5q0 90 57 138t152 48h418v-84z" />
    <glyph glyph-name="periodcentered" unicode="&#xb7;" horiz-adv-x="240" 
d="M113 380q30 0 51.5 -21t21.5 -52q0 -29 -21.5 -50t-51.5 -21q-29 0 -50 21t-21 50q0 31 21 52t50 21z" />
    <glyph glyph-name="cedilla" unicode="&#xb8;" 
d="M156 10l-12 -50q48 -6 78 -31t30 -68q0 -53 -39 -81t-96 -28q-55 0 -95 19l19 68q26 -17 66 -17q25 0 43 9.5t18 30.5q0 42 -68 42q-14 0 -34 -4l32 110h58z" />
    <glyph glyph-name="ordmasculine" unicode="&#xba;" horiz-adv-x="509" 
d="M254 756q94 0 155 -59t61 -155t-61 -154.5t-155 -58.5t-155 58.5t-61 154.5t61 155t155 59zM254 670q-50 0 -82 -34.5t-32 -93.5t31.5 -93t82.5 -34t83.5 34t32.5 93t-32.5 93.5t-83.5 34.5z" />
    <glyph glyph-name="guillemotright" unicode="&#xbb;" horiz-adv-x="553" 
d="M280 256l-172 -227l-89 56l135 171l-135 170l89 56zM537 256l-172 -227l-89 56l135 171l-135 170l89 56z" />
    <glyph glyph-name="onequarter" unicode="&#xbc;" horiz-adv-x="711" 
d="M144 0h-115l518 748h115zM187 322h-87v297l-60 -45l-37 70l129 89h55v-411zM638 156h55v-78h-55v-78h-87v78h-172v68l176 265h83v-255zM456 156h96v137z" />
    <glyph glyph-name="onehalf" unicode="&#xbd;" horiz-adv-x="751" 
d="M144 0h-115l518 748h115zM187 322h-87v297l-60 -45l-37 70l129 89h55v-411zM591 417q65 0 98.5 -35t33.5 -93q0 -70 -69 -146l-62 -66h134v-77h-264v60l129 137q45 47 45 93q0 23 -11 36.5t-32 13.5q-48 0 -48 -56l-85 5q1 60 36 94t95 34z" />
    <glyph glyph-name="threequarters" unicode="&#xbe;" horiz-adv-x="796" 
d="M229 0h-115l518 748h115zM160 738q61 0 95 -31.5t34 -87.5q0 -60 -52 -85q26 -9 42.5 -33t16.5 -59q0 -59 -37.5 -93t-98.5 -34q-64 0 -99 33.5t-37 91.5l87 6q5 -53 49 -53q23 0 36 13.5t13 37.5q0 50 -54 50h-42v74h41q21 0 35.5 12.5t14.5 34.5t-12 34t-32 12
q-43 0 -45 -50l-85 5q1 58 34.5 90t95.5 32zM723 156h55v-78h-55v-78h-87v78h-172v68l176 265h83v-255zM541 156h96v137z" />
    <glyph glyph-name="questiondown" unicode="&#xbf;" horiz-adv-x="516" 
d="M261 379q-30 0 -51.5 21t-21.5 52q0 29 21.5 50t51.5 21q29 0 50 -21t21 -50q0 -31 -21 -52t-50 -21zM257 -246q-111 0 -175 60.5t-64 159.5q0 59 26 96t77 76q42 32 60.5 59t18.5 65v29h119v-34q0 -47 -23.5 -83t-72.5 -76q-42 -33 -62.5 -61.5t-20.5 -68.5
q0 -53 31 -85t86 -32t86.5 30.5t36.5 85.5l119 -8q-5 -98 -70.5 -155.5t-171.5 -57.5z" />
    <glyph glyph-name="Agrave" unicode="&#xc0;" horiz-adv-x="759" 
d="M427 795h-104l-190 147h155zM746 0h-131l-69 167h-334l-70 -167h-130l316 748h101zM258 273h243l-121 291z" />
    <glyph glyph-name="Aacute" unicode="&#xc1;" horiz-adv-x="759" 
d="M431 795h-104l139 147h155zM746 0h-131l-69 167h-334l-70 -167h-130l316 748h101zM258 273h243l-121 291z" />
    <glyph glyph-name="Acircumflex" unicode="&#xc2;" horiz-adv-x="759" 
d="M552 795h-96l-76 84l-77 -84h-95l118 150h108zM746 0h-131l-69 167h-334l-70 -167h-130l316 748h101zM258 273h243l-121 291z" />
    <glyph glyph-name="Atilde" unicode="&#xc3;" horiz-adv-x="759" 
d="M306 946q34 0 74 -29t61 -29q44 0 46 51h64q4 -55 -23.5 -95t-74.5 -40q-34 0 -74 28.5t-61 28.5q-45 0 -45 -50h-65q-4 55 23.5 95t74.5 40zM746 0h-131l-69 167h-334l-70 -167h-130l316 748h101zM258 273h243l-121 291z" />
    <glyph glyph-name="Adieresis" unicode="&#xc4;" horiz-adv-x="759" 
d="M297 936q26 0 45 -18.5t19 -44.5q0 -27 -19 -45.5t-45 -18.5q-27 0 -45.5 18.5t-18.5 45.5q0 26 18.5 44.5t45.5 18.5zM465 936q27 0 45.5 -18.5t18.5 -44.5q0 -27 -18.5 -45.5t-45.5 -18.5q-26 0 -45 18.5t-19 45.5q0 26 19 44.5t45 18.5zM746 0h-131l-69 167h-334
l-70 -167h-130l316 748h101zM258 273h243l-121 291z" />
    <glyph glyph-name="Aring" unicode="&#xc5;" horiz-adv-x="759" 
d="M380 997q45 0 76 -29t31 -73t-31 -73t-76 -29q-46 0 -77.5 29t-31.5 73t31.5 73t77.5 29zM380 940q-21 0 -34 -12.5t-13 -32.5t13 -32.5t34 -12.5q20 0 32.5 13t12.5 32q0 20 -12.5 32.5t-32.5 12.5zM746 0h-131l-69 167h-334l-70 -167h-130l316 748h101zM258 273h243
l-121 291z" />
    <glyph glyph-name="AE" unicode="&#xc6;" horiz-adv-x="1034" 
d="M641 643v-206h307v-103h-307v-228h351v-106h-470v167h-259l-111 -167h-145l501 748h484v-105h-351zM522 273v286l-189 -286h189z" />
    <glyph glyph-name="Ccedilla" unicode="&#xc7;" horiz-adv-x="816" 
d="M649 274l125 -11q-21 -121 -109 -193.5t-215 -78.5l-9 -36q48 -6 78 -30.5t30 -68.5q0 -53 -39 -81t-96 -28q-55 0 -95 19l19 68q26 -17 66 -17q25 0 43 9.5t18 30.5q0 42 -68 42q-14 0 -34 -4l28 96q-151 12 -244.5 114t-93.5 269q0 178 104 281t269 103
q136 0 232.5 -76t114.5 -204l-124 -11q-15 88 -76 136.5t-151 48.5q-112 0 -180 -75t-68 -203q0 -131 70 -204.5t179 -73.5q89 0 149.5 46.5t76.5 131.5z" />
    <glyph glyph-name="Egrave" unicode="&#xc8;" horiz-adv-x="597" 
d="M370 795h-104l-190 147h155zM554 643h-351v-206h307v-103h-307v-228h351v-106h-470v748h470v-105z" />
    <glyph glyph-name="Eacute" unicode="&#xc9;" horiz-adv-x="597" 
d="M374 795h-104l139 147h155zM554 643h-351v-206h307v-103h-307v-228h351v-106h-470v748h470v-105z" />
    <glyph glyph-name="Ecircumflex" unicode="&#xca;" horiz-adv-x="597" 
d="M495 795h-96l-76 84l-77 -84h-95l118 150h108zM554 643h-351v-206h307v-103h-307v-228h351v-106h-470v748h470v-105z" />
    <glyph glyph-name="Edieresis" unicode="&#xcb;" horiz-adv-x="597" 
d="M240 936q26 0 45 -18.5t19 -44.5q0 -27 -19 -45.5t-45 -18.5q-27 0 -45.5 18.5t-18.5 45.5q0 26 18.5 44.5t45.5 18.5zM408 936q27 0 45.5 -18.5t18.5 -44.5q0 -27 -18.5 -45.5t-45.5 -18.5q-26 0 -45 18.5t-19 45.5q0 26 19 44.5t45 18.5zM554 643h-351v-206h307v-103
h-307v-228h351v-106h-470v748h470v-105z" />
    <glyph glyph-name="Igrave" unicode="&#xcc;" horiz-adv-x="286" 
d="M194 795h-104l-190 147h155zM203 0h-119v748h119v-748z" />
    <glyph glyph-name="Iacute" unicode="&#xcd;" horiz-adv-x="286" 
d="M198 795h-104l139 147h155zM203 0h-119v748h119v-748z" />
    <glyph glyph-name="Icircumflex" unicode="&#xce;" horiz-adv-x="286" 
d="M319 795h-96l-76 84l-77 -84h-95l118 150h108zM203 0h-119v748h119v-748z" />
    <glyph glyph-name="Idieresis" unicode="&#xcf;" horiz-adv-x="286" 
d="M64 936q26 0 45 -18.5t19 -44.5q0 -27 -19 -45.5t-45 -18.5q-27 0 -45.5 18.5t-18.5 45.5q0 26 18.5 44.5t45.5 18.5zM232 936q27 0 45.5 -18.5t18.5 -44.5q0 -27 -18.5 -45.5t-45.5 -18.5q-26 0 -45 18.5t-19 45.5q0 26 19 44.5t45 18.5zM203 0h-119v748h119v-748z" />
    <glyph glyph-name="Eth" unicode="&#xd0;" horiz-adv-x="799" 
d="M103 748h299q161 0 263 -100.5t102 -273.5t-103 -273.5t-264 -100.5h-297v328h-98v91h98v329zM221 102h180q112 0 179.5 70.5t67.5 201.5t-67 201.5t-179 70.5h-181v-227h132v-91h-132v-226z" />
    <glyph glyph-name="Ntilde" unicode="&#xd1;" horiz-adv-x="756" 
d="M300 946q34 0 74 -29t61 -29q44 0 46 51h64q4 -55 -23.5 -95t-74.5 -40q-34 0 -74 28.5t-61 28.5q-45 0 -45 -50h-65q-4 55 23.5 95t74.5 40zM673 0h-101l-369 528v-528h-119v748h100l370 -529v529h119v-748z" />
    <glyph glyph-name="Ograve" unicode="&#xd2;" horiz-adv-x="870" 
d="M475 795h-104l-190 147h155zM435 758q166 0 273.5 -104.5t107.5 -279.5t-107.5 -279.5t-273.5 -104.5q-167 0 -274.5 104.5t-107.5 279.5t107.5 279.5t274.5 104.5zM435 652q-115 0 -188 -74.5t-73 -203.5q0 -128 73 -203t188 -75q114 0 187 75t73 203q0 129 -73 203.5
t-187 74.5z" />
    <glyph glyph-name="Oacute" unicode="&#xd3;" horiz-adv-x="870" 
d="M479 795h-104l139 147h155zM435 758q166 0 273.5 -104.5t107.5 -279.5t-107.5 -279.5t-273.5 -104.5q-167 0 -274.5 104.5t-107.5 279.5t107.5 279.5t274.5 104.5zM435 652q-115 0 -188 -74.5t-73 -203.5q0 -128 73 -203t188 -75q114 0 187 75t73 203q0 129 -73 203.5
t-187 74.5z" />
    <glyph glyph-name="Ocircumflex" unicode="&#xd4;" horiz-adv-x="870" 
d="M600 795h-96l-76 84l-77 -84h-95l118 150h108zM435 758q166 0 273.5 -104.5t107.5 -279.5t-107.5 -279.5t-273.5 -104.5q-167 0 -274.5 104.5t-107.5 279.5t107.5 279.5t274.5 104.5zM435 652q-115 0 -188 -74.5t-73 -203.5q0 -128 73 -203t188 -75q114 0 187 75t73 203
q0 129 -73 203.5t-187 74.5z" />
    <glyph glyph-name="Otilde" unicode="&#xd5;" horiz-adv-x="870" 
d="M354 946q34 0 74 -29t61 -29q44 0 46 51h64q4 -55 -23.5 -95t-74.5 -40q-34 0 -74 28.5t-61 28.5q-45 0 -45 -50h-65q-4 55 23.5 95t74.5 40zM435 758q166 0 273.5 -104.5t107.5 -279.5t-107.5 -279.5t-273.5 -104.5q-167 0 -274.5 104.5t-107.5 279.5t107.5 279.5
t274.5 104.5zM435 652q-115 0 -188 -74.5t-73 -203.5q0 -128 73 -203t188 -75q114 0 187 75t73 203q0 129 -73 203.5t-187 74.5z" />
    <glyph glyph-name="Odieresis" unicode="&#xd6;" horiz-adv-x="870" 
d="M345 936q26 0 45 -18.5t19 -44.5q0 -27 -19 -45.5t-45 -18.5q-27 0 -45.5 18.5t-18.5 45.5q0 26 18.5 44.5t45.5 18.5zM513 936q27 0 45.5 -18.5t18.5 -44.5q0 -27 -18.5 -45.5t-45.5 -18.5q-26 0 -45 18.5t-19 45.5q0 26 19 44.5t45 18.5zM435 758q166 0 273.5 -104.5
t107.5 -279.5t-107.5 -279.5t-273.5 -104.5q-167 0 -274.5 104.5t-107.5 279.5t107.5 279.5t274.5 104.5zM435 652q-115 0 -188 -74.5t-73 -203.5q0 -128 73 -203t188 -75q114 0 187 75t73 203q0 129 -73 203.5t-187 74.5z" />
    <glyph glyph-name="multiply" unicode="&#xd7;" horiz-adv-x="535" 
d="M486 513l-144 -143l145 -145l-74 -75l-146 145l-146 -146l-74 75l146 146l-145 145l74 75l145 -146l144 144z" />
    <glyph glyph-name="Oslash" unicode="&#xd8;" horiz-adv-x="856" 
d="M762 736l-59 -77q113 -108 113 -285q0 -175 -107.5 -279.5t-273.5 -104.5q-115 0 -205 52l-63 -83l-73 55l64 83q-105 107 -105 277q0 175 107.5 279.5t274.5 104.5q107 0 194 -46l60 79zM174 374q0 -111 56 -183l331 432q-56 29 -126 29q-115 0 -188 -74.5t-73 -203.5z
M435 96q114 0 187 75t73 203q0 116 -63 192l-334 -435q59 -35 137 -35z" />
    <glyph glyph-name="Ugrave" unicode="&#xd9;" horiz-adv-x="770" 
d="M432 795h-104l-190 147h155zM692 748v-457q0 -143 -82 -222t-225 -79t-225 79t-82 222v457h119v-455q0 -97 48.5 -147t139.5 -50q90 0 139 50.5t49 146.5v455h119z" />
    <glyph glyph-name="Uacute" unicode="&#xda;" horiz-adv-x="770" 
d="M436 795h-104l139 147h155zM692 748v-457q0 -143 -82 -222t-225 -79t-225 79t-82 222v457h119v-455q0 -97 48.5 -147t139.5 -50q90 0 139 50.5t49 146.5v455h119z" />
    <glyph glyph-name="Ucircumflex" unicode="&#xdb;" horiz-adv-x="770" 
d="M557 795h-96l-76 84l-77 -84h-95l118 150h108zM692 748v-457q0 -143 -82 -222t-225 -79t-225 79t-82 222v457h119v-455q0 -97 48.5 -147t139.5 -50q90 0 139 50.5t49 146.5v455h119z" />
    <glyph glyph-name="Udieresis" unicode="&#xdc;" horiz-adv-x="770" 
d="M302 936q26 0 45 -18.5t19 -44.5q0 -27 -19 -45.5t-45 -18.5q-27 0 -45.5 18.5t-18.5 45.5q0 26 18.5 44.5t45.5 18.5zM470 936q27 0 45.5 -18.5t18.5 -44.5q0 -27 -18.5 -45.5t-45.5 -18.5q-26 0 -45 18.5t-19 45.5q0 26 19 44.5t45 18.5zM692 748v-457q0 -143 -82 -222
t-225 -79t-225 79t-82 222v457h119v-455q0 -97 48.5 -147t139.5 -50q90 0 139 50.5t49 146.5v455h119z" />
    <glyph glyph-name="Yacute" unicode="&#xdd;" horiz-adv-x="715" 
d="M409 795h-104l139 147h155zM417 301v-301h-118v301l-284 447h138l205 -329l204 329h138z" />
    <glyph glyph-name="Thorn" unicode="&#xde;" horiz-adv-x="644" 
d="M203 648h173q104 0 169.5 -61t65.5 -170t-65.5 -170.5t-169.5 -61.5h-173v-185h-119v748h119v-100zM202 542v-251h159q56 0 92 33t36 93t-36 92.5t-92 32.5h-159z" />
    <glyph glyph-name="germandbls" unicode="&#xdf;" horiz-adv-x="645" 
d="M301 785q101 0 161 -46t60 -121q0 -34 -14 -61t-30.5 -42t-30.5 -35t-14 -41t17 -40t41.5 -36.5t49 -39.5t41.5 -58t17 -82q0 -90 -62 -140.5t-160 -50.5q-59 0 -104 18l22 90q37 -14 72 -14q52 0 85 28.5t33 78.5q0 32 -17 59t-41.5 45.5l-49 37t-41.5 44.5t-17 58
q0 31 14 55.5t30.5 37t30.5 30.5t14 38q0 43 -27.5 67t-77.5 24q-51 0 -81.5 -29.5t-30.5 -80.5v-579h-112v582q0 92 61 147.5t161 55.5z" />
    <glyph glyph-name="agrave" unicode="&#xe0;" horiz-adv-x="548" 
d="M319 596h-88l-134 191h128zM267 522q99 0 152 -52.5t53 -150.5v-319h-113v46q-59 -56 -139 -56q-78 0 -124.5 39.5t-46.5 110.5q0 144 188 155l122 7v15q0 107 -91 107q-45 0 -68.5 -25t-23.5 -62l-113 4q0 72 56 126.5t148 54.5zM360 215l-107 -7q-91 -5 -91 -66
q0 -58 77 -58q56 0 88.5 28.5t32.5 84.5v18z" />
    <glyph glyph-name="aacute" unicode="&#xe1;" horiz-adv-x="548" 
d="M320 596h-88l95 191h127zM267 522q99 0 152 -52.5t53 -150.5v-319h-113v46q-59 -56 -139 -56q-78 0 -124.5 39.5t-46.5 110.5q0 144 188 155l122 7v15q0 107 -91 107q-45 0 -68.5 -25t-23.5 -62l-113 4q0 72 56 126.5t148 54.5zM360 215l-107 -7q-91 -5 -91 -66
q0 -58 77 -58q56 0 88.5 28.5t32.5 84.5v18z" />
    <glyph glyph-name="acircumflex" unicode="&#xe2;" horiz-adv-x="548" 
d="M451 597h-95l-78 98l-77 -98h-95l118 173h108zM267 522q99 0 152 -52.5t53 -150.5v-319h-113v46q-59 -56 -139 -56q-78 0 -124.5 39.5t-46.5 110.5q0 144 188 155l122 7v15q0 107 -91 107q-45 0 -68.5 -25t-23.5 -62l-113 4q0 72 56 126.5t148 54.5zM360 215l-107 -7
q-91 -5 -91 -66q0 -58 77 -58q56 0 88.5 28.5t32.5 84.5v18z" />
    <glyph glyph-name="atilde" unicode="&#xe3;" horiz-adv-x="548" 
d="M203 747q34 0 74 -29t61 -29q44 0 46 51h64q4 -55 -23.5 -95.5t-74.5 -40.5q-34 0 -74 29t-61 29q-45 0 -45 -51h-65q-4 56 23.5 96t74.5 40zM267 522q99 0 152 -52.5t53 -150.5v-319h-113v46q-59 -56 -139 -56q-78 0 -124.5 39.5t-46.5 110.5q0 144 188 155l122 7v15
q0 107 -91 107q-45 0 -68.5 -25t-23.5 -62l-113 4q0 72 56 126.5t148 54.5zM360 215l-107 -7q-91 -5 -91 -66q0 -58 77 -58q56 0 88.5 28.5t32.5 84.5v18z" />
    <glyph glyph-name="adieresis" unicode="&#xe4;" horiz-adv-x="548" 
d="M192 743q26 0 45 -18.5t19 -44.5q0 -27 -18.5 -45t-45.5 -18t-45.5 18t-18.5 45q0 26 18.5 44.5t45.5 18.5zM360 743q27 0 45.5 -18.5t18.5 -44.5q0 -27 -18.5 -45t-45.5 -18t-45.5 18t-18.5 45q0 26 19 44.5t45 18.5zM267 522q99 0 152 -52.5t53 -150.5v-319h-113v46
q-59 -56 -139 -56q-78 0 -124.5 39.5t-46.5 110.5q0 144 188 155l122 7v15q0 107 -91 107q-45 0 -68.5 -25t-23.5 -62l-113 4q0 72 56 126.5t148 54.5zM360 215l-107 -7q-91 -5 -91 -66q0 -58 77 -58q56 0 88.5 28.5t32.5 84.5v18z" />
    <glyph glyph-name="aring" unicode="&#xe5;" horiz-adv-x="548" 
d="M278 809q51 0 86 -32t35 -81t-35 -81.5t-86 -32.5t-86.5 32.5t-35.5 81.5t35 81t87 32zM278 744q-23 0 -37 -13.5t-14 -34.5q0 -22 14 -35t37 -13q22 0 36 13t14 35q0 21 -14 34.5t-36 13.5zM267 522q99 0 152 -52.5t53 -150.5v-319h-113v46q-59 -56 -139 -56
q-78 0 -124.5 39.5t-46.5 110.5q0 144 188 155l122 7v15q0 107 -91 107q-45 0 -68.5 -25t-23.5 -62l-113 4q0 72 56 126.5t148 54.5zM360 215l-107 -7q-91 -5 -91 -66q0 -58 77 -58q56 0 88.5 28.5t32.5 84.5v18z" />
    <glyph glyph-name="ae" unicode="&#xe6;" horiz-adv-x="906" 
d="M857 214h-377q4 -58 41 -92.5t96 -34.5q100 0 122 73l113 -6q-15 -70 -80 -117t-152 -47q-130 0 -202 89q-69 -89 -193 -89q-80 0 -128 40.5t-48 111.5q0 142 188 153l122 7v15q0 109 -91 109q-45 0 -68.5 -25.5t-23.5 -63.5l-113 4q0 72 56 126.5t148 54.5
q111 0 162 -74q71 74 188 74q110 0 175 -68t65 -185v-55zM616 426q-57 0 -94 -32.5t-41 -91.5h263q-2 57 -34.5 90.5t-93.5 33.5zM360 215l-107 -7q-91 -5 -91 -64q0 -57 77 -57q52 0 86.5 25.5t34.5 84.5v18z" />
    <glyph glyph-name="ccedilla" unicode="&#xe7;" horiz-adv-x="584" 
d="M433 189l110 -10q-14 -82 -72 -132.5t-144 -55.5l-8 -35q48 -6 78 -31t30 -68q0 -53 -39 -81t-96 -28q-55 0 -95 19l19 68q26 -17 66 -17q25 0 43 9.5t18 30.5q0 42 -68 42q-14 0 -34 -4l28 96q-99 12 -159.5 81.5t-60.5 182.5q0 124 71.5 195t185.5 71q94 0 158.5 -52
t77.5 -142l-110 -10q-6 50 -40.5 79t-85.5 29q-64 0 -103.5 -45t-39.5 -125q0 -79 40 -124t103 -45q52 0 85.5 27t41.5 75z" />
    <glyph glyph-name="egrave" unicode="&#xe8;" horiz-adv-x="594" 
d="M256 596l-134 191h128l94 -191h-88zM545 214h-377q4 -58 41 -92.5t96 -34.5q100 0 122 73l113 -6q-15 -70 -80 -117t-152 -47q-115 0 -187 71.5t-72 194.5t71 194.5t185 71.5q110 0 175 -68t65 -185v-55zM304 426q-57 0 -94 -32.5t-41 -91.5h263q-2 57 -34.5 90.5
t-93.5 33.5z" />
    <glyph glyph-name="eacute" unicode="&#xe9;" horiz-adv-x="594" 
d="M345 596h-88l95 191h127zM545 214h-377q4 -58 41 -92.5t96 -34.5q100 0 122 73l113 -6q-15 -70 -80 -117t-152 -47q-115 0 -187 71.5t-72 194.5t71 194.5t185 71.5q110 0 175 -68t65 -185v-55zM304 426q-57 0 -94 -32.5t-41 -91.5h263q-2 57 -34.5 90.5t-93.5 33.5z" />
    <glyph glyph-name="ecircumflex" unicode="&#xea;" horiz-adv-x="594" 
d="M226 597h-95l118 173h108l119 -173h-95l-78 98zM545 214h-377q4 -58 41 -92.5t96 -34.5q100 0 122 73l113 -6q-15 -70 -80 -117t-152 -47q-115 0 -187 71.5t-72 194.5t71 194.5t185 71.5q110 0 175 -68t65 -185v-55zM304 426q-57 0 -94 -32.5t-41 -91.5h263
q-2 57 -34.5 90.5t-93.5 33.5z" />
    <glyph glyph-name="edieresis" unicode="&#xeb;" horiz-adv-x="594" 
d="M217 617q-27 0 -45.5 18t-18.5 45q0 26 18.5 44.5t45.5 18.5q26 0 45 -18.5t19 -44.5q0 -27 -18.5 -45t-45.5 -18zM385 617q-27 0 -45.5 18t-18.5 45q0 26 19 44.5t45 18.5q27 0 45.5 -18.5t18.5 -44.5q0 -27 -18.5 -45t-45.5 -18zM545 214h-377q4 -58 41 -92.5t96 -34.5
q100 0 122 73l113 -6q-15 -70 -80 -117t-152 -47q-115 0 -187 71.5t-72 194.5t71 194.5t185 71.5q110 0 175 -68t65 -185v-55zM304 426q-57 0 -94 -32.5t-41 -91.5h263q-2 57 -34.5 90.5t-93.5 33.5z" />
    <glyph glyph-name="igrave" unicode="&#xec;" 
d="M181 596h-88l-134 191h128zM193 0h-112v513h112v-513z" />
    <glyph glyph-name="iacute" unicode="&#xed;" 
d="M182 596h-88l95 191h127zM193 0h-112v513h112v-513z" />
    <glyph glyph-name="icircumflex" unicode="&#xee;" 
d="M313 597h-95l-78 98l-77 -98h-95l118 173h108zM193 0h-112v513h112v-513z" />
    <glyph glyph-name="idieresis" unicode="&#xef;" 
d="M54 743q26 0 45 -18.5t19 -44.5q0 -27 -18.5 -45t-45.5 -18t-45.5 18t-18.5 45q0 26 18.5 44.5t45.5 18.5zM222 743q27 0 45.5 -18.5t18.5 -44.5q0 -27 -18.5 -45t-45.5 -18t-45.5 18t-18.5 45q0 26 19 44.5t45 18.5zM193 0h-112v513h112v-513z" />
    <glyph glyph-name="eth" unicode="&#xf0;" horiz-adv-x="606" 
d="M488 748l-82 -70q145 -136 145 -416q0 -130 -70 -201t-184 -71q-105 0 -176.5 66.5t-71.5 180.5q0 112 71.5 180t175.5 68q64 0 122 -29q-27 104 -87 158l-83 -71l-51 51l72 61q-56 26 -139 29v93q124 0 217 -55l89 75zM301 87q62 0 101 41t39 110t-38 109t-102 40
q-63 0 -102.5 -40.5t-39.5 -109.5t40 -109.5t102 -40.5z" />
    <glyph glyph-name="ntilde" unicode="&#xf1;" horiz-adv-x="613" 
d="M242 747q34 0 74 -29t61 -29q44 0 46 51h64q4 -55 -23.5 -95.5t-74.5 -40.5q-34 0 -74 29t-61 29q-45 0 -45 -51h-65q-4 56 23.5 96t74.5 40zM337 522q89 0 144.5 -57.5t55.5 -155.5v-309h-113v294q0 57 -30.5 90.5t-81.5 33.5q-53 0 -86 -35.5t-33 -89.5v-293h-112v513
h106v-68q44 77 150 77z" />
    <glyph glyph-name="ograve" unicode="&#xf2;" horiz-adv-x="634" 
d="M357 596h-88l-134 191h128zM317 522q116 0 191.5 -73t75.5 -193t-75.5 -193t-191.5 -73q-117 0 -192.5 73t-75.5 193t75.5 193t192.5 73zM317 426q-68 0 -111 -45.5t-43 -124.5q0 -78 43 -123.5t111 -45.5t111 45.5t43 123.5q0 79 -43 124.5t-111 45.5z" />
    <glyph glyph-name="oacute" unicode="&#xf3;" horiz-adv-x="634" 
d="M358 596h-88l95 191h127zM317 522q116 0 191.5 -73t75.5 -193t-75.5 -193t-191.5 -73q-117 0 -192.5 73t-75.5 193t75.5 193t192.5 73zM317 426q-68 0 -111 -45.5t-43 -124.5q0 -78 43 -123.5t111 -45.5t111 45.5t43 123.5q0 79 -43 124.5t-111 45.5z" />
    <glyph glyph-name="ocircumflex" unicode="&#xf4;" horiz-adv-x="634" 
d="M489 597h-95l-78 98l-77 -98h-95l118 173h108zM317 522q116 0 191.5 -73t75.5 -193t-75.5 -193t-191.5 -73q-117 0 -192.5 73t-75.5 193t75.5 193t192.5 73zM317 426q-68 0 -111 -45.5t-43 -124.5q0 -78 43 -123.5t111 -45.5t111 45.5t43 123.5q0 79 -43 124.5t-111 45.5
z" />
    <glyph glyph-name="otilde" unicode="&#xf5;" horiz-adv-x="634" 
d="M241 747q34 0 74 -29t61 -29q44 0 46 51h64q4 -55 -23.5 -95.5t-74.5 -40.5q-34 0 -74 29t-61 29q-45 0 -45 -51h-65q-4 56 23.5 96t74.5 40zM317 522q116 0 191.5 -73t75.5 -193t-75.5 -193t-191.5 -73q-117 0 -192.5 73t-75.5 193t75.5 193t192.5 73zM317 426
q-68 0 -111 -45.5t-43 -124.5q0 -78 43 -123.5t111 -45.5t111 45.5t43 123.5q0 79 -43 124.5t-111 45.5z" />
    <glyph glyph-name="odieresis" unicode="&#xf6;" horiz-adv-x="634" 
d="M230 743q26 0 45 -18.5t19 -44.5q0 -27 -18.5 -45t-45.5 -18t-45.5 18t-18.5 45q0 26 18.5 44.5t45.5 18.5zM398 743q27 0 45.5 -18.5t18.5 -44.5q0 -27 -18.5 -45t-45.5 -18t-45.5 18t-18.5 45q0 26 19 44.5t45 18.5zM317 522q116 0 191.5 -73t75.5 -193t-75.5 -193
t-191.5 -73q-117 0 -192.5 73t-75.5 193t75.5 193t192.5 73zM317 426q-68 0 -111 -45.5t-43 -124.5q0 -78 43 -123.5t111 -45.5t111 45.5t43 123.5q0 79 -43 124.5t-111 45.5z" />
    <glyph glyph-name="divide" unicode="&#xf7;" horiz-adv-x="547" 
d="M273 668q30 0 51.5 -21t21.5 -51t-21.5 -50.5t-51.5 -20.5q-29 0 -50 20.5t-21 50.5t21 51t50 21zM515 318h-483v106h483v-106zM273 217q30 0 51.5 -21t21.5 -51q0 -29 -21.5 -50.5t-51.5 -21.5q-29 0 -50 21.5t-21 50.5q0 30 21 51t50 21z" />
    <glyph glyph-name="oslash" unicode="&#xf8;" horiz-adv-x="634" 
d="M549 497l-38 -50q73 -73 73 -191q0 -120 -75.5 -193t-191.5 -73q-71 0 -129 29l-44 -58l-62 46l43 56q-76 74 -76 193q0 120 75.5 193t192.5 73q74 0 131 -30l39 51zM163 256q0 -61 28 -105l196 260q-32 15 -70 15q-68 0 -111 -45.5t-43 -124.5zM317 87q68 0 111 45.5
t43 123.5q0 62 -26 103l-195 -258q31 -14 67 -14z" />
    <glyph glyph-name="ugrave" unicode="&#xf9;" horiz-adv-x="596" 
d="M341 596h-88l-134 191h128zM515 0h-106v67q-16 -32 -53 -54.5t-92 -22.5q-86 0 -137 56.5t-51 150.5v316h112v-299q0 -56 27 -87.5t77 -31.5q51 0 81 36.5t30 88.5v293h112v-513z" />
    <glyph glyph-name="uacute" unicode="&#xfa;" horiz-adv-x="596" 
d="M342 596h-88l95 191h127zM515 0h-106v67q-16 -32 -53 -54.5t-92 -22.5q-86 0 -137 56.5t-51 150.5v316h112v-299q0 -56 27 -87.5t77 -31.5q51 0 81 36.5t30 88.5v293h112v-513z" />
    <glyph glyph-name="ucircumflex" unicode="&#xfb;" horiz-adv-x="596" 
d="M473 597h-95l-78 98l-77 -98h-95l118 173h108zM515 0h-106v67q-16 -32 -53 -54.5t-92 -22.5q-86 0 -137 56.5t-51 150.5v316h112v-299q0 -56 27 -87.5t77 -31.5q51 0 81 36.5t30 88.5v293h112v-513z" />
    <glyph glyph-name="udieresis" unicode="&#xfc;" horiz-adv-x="596" 
d="M214 743q26 0 45 -18.5t19 -44.5q0 -27 -18.5 -45t-45.5 -18t-45.5 18t-18.5 45q0 26 18.5 44.5t45.5 18.5zM382 743q27 0 45.5 -18.5t18.5 -44.5q0 -27 -18.5 -45t-45.5 -18t-45.5 18t-18.5 45q0 26 19 44.5t45 18.5zM515 0h-106v67q-16 -32 -53 -54.5t-92 -22.5
q-86 0 -137 56.5t-51 150.5v316h112v-299q0 -56 27 -87.5t77 -31.5q51 0 81 36.5t30 88.5v293h112v-513z" />
    <glyph glyph-name="yacute" unicode="&#xfd;" horiz-adv-x="549" 
d="M317 596h-88l95 191h127zM212 -255h-123l126 291l-203 477h125l138 -351l138 351h125z" />
    <glyph glyph-name="thorn" unicode="&#xfe;" horiz-adv-x="652" 
d="M193 777v-327q22 32 64.5 52t98.5 20q109 0 178 -72.5t69 -193.5t-69 -193.5t-178 -72.5q-55 0 -98 19.5t-65 51.5v-316h-112v1032h112zM338 425q-65 0 -105 -41t-40 -115v-27q0 -74 40 -115t105 -41q67 0 109 45t42 125t-42 124.5t-109 44.5z" />
    <glyph glyph-name="ydieresis" unicode="&#xff;" horiz-adv-x="549" 
d="M189 743q26 0 45 -18.5t19 -44.5q0 -27 -18.5 -45t-45.5 -18t-45.5 18t-18.5 45q0 26 18.5 44.5t45.5 18.5zM357 743q27 0 45.5 -18.5t18.5 -44.5q0 -27 -18.5 -45t-45.5 -18t-45.5 18t-18.5 45q0 26 19 44.5t45 18.5zM212 -255h-123l126 291l-203 477h125l138 -351
l138 351h125z" />
    <glyph glyph-name="Amacron" unicode="&#x100;" horiz-adv-x="759" 
d="M519 826h-279v86h279v-86zM746 0h-131l-69 167h-334l-70 -167h-130l316 748h101zM258 273h243l-121 291z" />
    <glyph glyph-name="amacron" unicode="&#x101;" horiz-adv-x="548" 
d="M417 628h-279v87h279v-87zM267 522q99 0 152 -52.5t53 -150.5v-319h-113v46q-59 -56 -139 -56q-78 0 -124.5 39.5t-46.5 110.5q0 144 188 155l122 7v15q0 107 -91 107q-45 0 -68.5 -25t-23.5 -62l-113 4q0 72 56 126.5t148 54.5zM360 215l-107 -7q-91 -5 -91 -66
q0 -58 77 -58q56 0 88.5 28.5t32.5 84.5v18z" />
    <glyph glyph-name="Abreve" unicode="&#x102;" horiz-adv-x="759" 
d="M457 948h92q0 -71 -46.5 -109t-123.5 -38t-123 38t-46 109h92q0 -32 21 -50.5t56 -18.5q36 0 57 18.5t21 50.5zM746 0h-131l-69 167h-334l-70 -167h-130l316 748h101zM258 273h243l-121 291z" />
    <glyph glyph-name="abreve" unicode="&#x103;" horiz-adv-x="548" 
d="M355 743h92q0 -71 -46.5 -109t-123.5 -38t-123 38t-46 109h92q0 -32 21 -50.5t56 -18.5q36 0 57 18.5t21 50.5zM267 522q99 0 152 -52.5t53 -150.5v-319h-113v46q-59 -56 -139 -56q-78 0 -124.5 39.5t-46.5 110.5q0 144 188 155l122 7v15q0 107 -91 107q-45 0 -68.5 -25
t-23.5 -62l-113 4q0 72 56 126.5t148 54.5zM360 215l-107 -7q-91 -5 -91 -66q0 -58 77 -58q56 0 88.5 28.5t32.5 84.5v18z" />
    <glyph glyph-name="Aogonek" unicode="&#x104;" horiz-adv-x="759" 
d="M663 -129q29 0 53 12l11 -56q-39 -17 -83 -17q-51 0 -83 22.5t-32 66.5q0 62 85 103l-68 165h-334l-70 -167h-130l316 748h101l317 -748h-49q-44 -24 -64 -43t-20 -45q0 -41 50 -41zM501 273l-121 291l-122 -291h243z" />
    <glyph glyph-name="aogonek" unicode="&#x105;" horiz-adv-x="548" 
d="M472 0h-32q-42 -22 -62 -41.5t-20 -45.5q0 -41 50 -41q29 0 53 12l11 -56q-39 -17 -83 -17q-51 0 -83 22.5t-32 66.5q0 62 85 103v43q-59 -56 -139 -56q-78 0 -124.5 39.5t-46.5 110.5q0 144 188 155l122 7v15q0 107 -91 107q-45 0 -68.5 -25t-23.5 -62l-113 4
q0 72 56 126.5t148 54.5q99 0 152 -52.5t53 -150.5v-319zM239 84q56 0 88.5 28.5t32.5 84.5v18l-107 -7q-91 -5 -91 -66q0 -58 77 -58z" />
    <glyph glyph-name="Cacute" unicode="&#x106;" horiz-adv-x="816" 
d="M468 795h-104l139 147h155zM426 758q136 0 232.5 -76t114.5 -204l-124 -11q-15 88 -76 136.5t-151 48.5q-112 0 -180 -75t-68 -203q0 -131 70 -204.5t179 -73.5q89 0 149.5 46.5t76.5 131.5l125 -11q-22 -126 -117 -199.5t-230 -73.5q-164 0 -269 103t-105 281t104 281
t269 103z" />
    <glyph glyph-name="cacute" unicode="&#x107;" horiz-adv-x="584" 
d="M341 596h-88l95 191h127zM306 522q94 0 158.5 -52t77.5 -142l-110 -10q-6 50 -40.5 79t-85.5 29q-64 0 -103.5 -45t-39.5 -125q0 -79 40 -124t103 -45q52 0 85.5 27t41.5 75l110 -10q-15 -87 -79 -138t-158 -51q-113 0 -185 71.5t-72 194.5q0 124 71.5 195t185.5 71z" />
    <glyph glyph-name="Ccircumflex" unicode="&#x108;" horiz-adv-x="816" 
d="M589 795h-96l-76 84l-77 -84h-95l118 150h108zM426 758q136 0 232.5 -76t114.5 -204l-124 -11q-15 88 -76 136.5t-151 48.5q-112 0 -180 -75t-68 -203q0 -131 70 -204.5t179 -73.5q89 0 149.5 46.5t76.5 131.5l125 -11q-22 -126 -117 -199.5t-230 -73.5q-164 0 -269 103
t-105 281t104 281t269 103z" />
    <glyph glyph-name="ccircumflex" unicode="&#x109;" horiz-adv-x="584" 
d="M472 597h-95l-78 98l-77 -98h-95l118 173h108zM306 522q94 0 158.5 -52t77.5 -142l-110 -10q-6 50 -40.5 79t-85.5 29q-64 0 -103.5 -45t-39.5 -125q0 -79 40 -124t103 -45q52 0 85.5 27t41.5 75l110 -10q-15 -87 -79 -138t-158 -51q-113 0 -185 71.5t-72 194.5
q0 124 71.5 195t185.5 71z" />
    <glyph glyph-name="Cdotaccent" unicode="&#x10a;" horiz-adv-x="816" 
d="M417 946q29 0 50 -21t21 -50q0 -30 -21 -50.5t-50 -20.5t-50 20.5t-21 50.5q0 29 21 50t50 21zM426 758q136 0 232.5 -76t114.5 -204l-124 -11q-15 88 -76 136.5t-151 48.5q-112 0 -180 -75t-68 -203q0 -131 70 -204.5t179 -73.5q89 0 149.5 46.5t76.5 131.5l125 -11
q-22 -126 -117 -199.5t-230 -73.5q-164 0 -269 103t-105 281t104 281t269 103z" />
    <glyph glyph-name="cdotaccent" unicode="&#x10b;" horiz-adv-x="584" 
d="M299 752q29 0 50 -21t21 -50t-21 -50t-50 -21t-50 21t-21 50t21 50t50 21zM306 522q94 0 158.5 -52t77.5 -142l-110 -10q-6 50 -40.5 79t-85.5 29q-64 0 -103.5 -45t-39.5 -125q0 -79 40 -124t103 -45q52 0 85.5 27t41.5 75l110 -10q-15 -87 -79 -138t-158 -51
q-113 0 -185 71.5t-72 194.5q0 124 71.5 195t185.5 71z" />
    <glyph glyph-name="Ccaron" unicode="&#x10c;" horiz-adv-x="816" 
d="M471 795h-108l-118 150h95l77 -83l76 83h96zM426 758q136 0 232.5 -76t114.5 -204l-124 -11q-15 88 -76 136.5t-151 48.5q-112 0 -180 -75t-68 -203q0 -131 70 -204.5t179 -73.5q89 0 149.5 46.5t76.5 131.5l125 -11q-22 -126 -117 -199.5t-230 -73.5q-164 0 -269 103
t-105 281t104 281t269 103z" />
    <glyph glyph-name="ccaron" unicode="&#x10d;" horiz-adv-x="584" 
d="M353 595h-108l-118 172h95l77 -98l78 98h95zM306 522q94 0 158.5 -52t77.5 -142l-110 -10q-6 50 -40.5 79t-85.5 29q-64 0 -103.5 -45t-39.5 -125q0 -79 40 -124t103 -45q52 0 85.5 27t41.5 75l110 -10q-15 -87 -79 -138t-158 -51q-113 0 -185 71.5t-72 194.5
q0 124 71.5 195t185.5 71z" />
    <glyph glyph-name="Dcaron" unicode="&#x10e;" horiz-adv-x="801" 
d="M404 795h-108l-118 150h95l77 -83l76 83h96zM84 748h299q161 0 263 -100.5t102 -273.5t-103 -273.5t-264 -100.5h-297v748zM202 646v-544h180q112 0 179.5 70.5t67.5 201.5t-67 201.5t-179 70.5h-181z" />
    <glyph glyph-name="dcaron" unicode="&#x10f;" horiz-adv-x="782" 
d="M459 777h112v-777h-106v71q-22 -36 -66.5 -58.5t-102.5 -22.5q-109 0 -178 72.5t-69 193.5t69 193.5t178 72.5q55 0 98 -19.5t65 -51.5v326zM698 761q32 0 49.5 -22t17.5 -58q0 -137 -130 -207v48q51 37 62 97q-29 2 -48.5 22t-19.5 48q0 30 19.5 51t49.5 21zM459 243v27
q0 74 -40 115t-105 41q-67 0 -109 -45t-42 -125t42 -124.5t109 -44.5q65 0 105 41t40 115z" />
    <glyph glyph-name="Dcroat" unicode="&#x110;" horiz-adv-x="799" 
d="M103 748h299q161 0 263 -100.5t102 -273.5t-103 -273.5t-264 -100.5h-297v328h-98v91h98v329zM221 102h180q112 0 179.5 70.5t67.5 201.5t-67 201.5t-179 70.5h-181v-227h132v-91h-132v-226z" />
    <glyph glyph-name="dcroat" unicode="&#x111;" horiz-adv-x="648" 
d="M647 605h-76v-605h-106v71q-22 -36 -66.5 -58.5t-102.5 -22.5q-109 0 -178 72.5t-69 193.5t69 193.5t178 72.5q55 0 98 -19.5t65 -51.5v154h-91v87h91v85h112v-85h76v-87zM459 243v27q0 74 -40 115t-105 41q-67 0 -109 -45t-42 -125t42 -124.5t109 -44.5q65 0 105 41
t40 115z" />
    <glyph glyph-name="Emacron" unicode="&#x112;" horiz-adv-x="597" 
d="M462 826h-279v86h279v-86zM554 643h-351v-206h307v-103h-307v-228h351v-106h-470v748h470v-105z" />
    <glyph glyph-name="emacron" unicode="&#x113;" horiz-adv-x="594" 
d="M442 628h-279v87h279v-87zM545 214h-377q4 -58 41 -92.5t96 -34.5q100 0 122 73l113 -6q-15 -70 -80 -117t-152 -47q-115 0 -187 71.5t-72 194.5t71 194.5t185 71.5q110 0 175 -68t65 -185v-55zM304 426q-57 0 -94 -32.5t-41 -91.5h263q-2 57 -34.5 90.5t-93.5 33.5z" />
    <glyph glyph-name="Ebreve" unicode="&#x114;" horiz-adv-x="597" 
d="M400 948h92q0 -71 -46 -109t-124 -38q-77 0 -123 38t-46 109h92q0 -32 21 -50.5t56 -18.5q36 0 57 18.5t21 50.5zM554 643h-351v-206h307v-103h-307v-228h351v-106h-470v748h470v-105z" />
    <glyph glyph-name="ebreve" unicode="&#x115;" horiz-adv-x="594" 
d="M302 596q-77 0 -123 38t-46 109h92q0 -32 21 -50.5t56 -18.5q36 0 57 18.5t21 50.5h92q0 -71 -46 -109t-124 -38zM545 214h-377q4 -58 41 -92.5t96 -34.5q100 0 122 73l113 -6q-15 -70 -80 -117t-152 -47q-115 0 -187 71.5t-72 194.5t71 194.5t185 71.5q110 0 175 -68
t65 -185v-55zM304 426q-57 0 -94 -32.5t-41 -91.5h263q-2 57 -34.5 90.5t-93.5 33.5z" />
    <glyph glyph-name="Edotaccent" unicode="&#x116;" horiz-adv-x="597" 
d="M323 946q29 0 50 -21t21 -50q0 -30 -21 -50.5t-50 -20.5t-50 20.5t-21 50.5q0 29 21 50t50 21zM554 643h-351v-206h307v-103h-307v-228h351v-106h-470v748h470v-105z" />
    <glyph glyph-name="edotaccent" unicode="&#x117;" horiz-adv-x="594" 
d="M303 610q-29 0 -50 21t-21 50t21 50t50 21t50 -21t21 -50t-21 -50t-50 -21zM545 214h-377q4 -58 41 -92.5t96 -34.5q100 0 122 73l113 -6q-15 -70 -80 -117t-152 -47q-115 0 -187 71.5t-72 194.5t71 194.5t185 71.5q110 0 175 -68t65 -185v-55zM304 426q-57 0 -94 -32.5
t-41 -91.5h263q-2 57 -34.5 90.5t-93.5 33.5z" />
    <glyph glyph-name="Eogonek" unicode="&#x118;" horiz-adv-x="597" 
d="M565 -117l11 -56q-39 -17 -83 -17q-51 0 -83 22.5t-32 66.5q0 62 81 101h-375v748h470v-105h-351v-206h307v-103h-307v-228h351v-106h-8q-44 -24 -64 -43t-20 -45q0 -41 50 -41q29 0 53 12z" />
    <glyph glyph-name="eogonek" unicode="&#x119;" horiz-adv-x="594" 
d="M545 214h-377q4 -58 41 -92.5t96 -34.5q100 0 122 73l113 -6q-12 -55 -57 -97.5t-109 -58.5q-42 -22 -62 -41.5t-20 -45.5q0 -41 50 -41q29 0 53 12l11 -56q-39 -17 -83 -17q-51 0 -83 22.5t-32 66.5q0 56 67 94q-102 10 -164 80.5t-62 183.5q0 123 71 194.5t185 71.5
q110 0 175 -68t65 -185v-55zM304 426q-57 0 -94 -32.5t-41 -91.5h263q-2 57 -34.5 90.5t-93.5 33.5z" />
    <glyph glyph-name="Ecaron" unicode="&#x11a;" horiz-adv-x="597" 
d="M377 795h-108l-118 150h95l77 -83l76 83h96zM554 643h-351v-206h307v-103h-307v-228h351v-106h-470v748h470v-105z" />
    <glyph glyph-name="ecaron" unicode="&#x11b;" horiz-adv-x="594" 
d="M249 595l-118 172h95l77 -98l78 98h95l-119 -172h-108zM545 214h-377q4 -58 41 -92.5t96 -34.5q100 0 122 73l113 -6q-15 -70 -80 -117t-152 -47q-115 0 -187 71.5t-72 194.5t71 194.5t185 71.5q110 0 175 -68t65 -185v-55zM304 426q-57 0 -94 -32.5t-41 -91.5h263
q-2 57 -34.5 90.5t-93.5 33.5z" />
    <glyph glyph-name="Gcircumflex" unicode="&#x11c;" horiz-adv-x="827" 
d="M342 795h-95l118 150h108l118 -150h-96l-76 84zM775 392v-39q0 -166 -94.5 -264.5t-255.5 -98.5q-163 0 -267.5 103.5t-104.5 280.5q0 178 103.5 281t267.5 103q131 0 225 -69.5t119 -191.5l-123 -20q-15 82 -74 128.5t-148 46.5q-114 0 -181.5 -71.5t-67.5 -206.5
q0 -134 68 -206t181 -72q91 0 150 47.5t73 143.5h-221v105h350z" />
    <glyph glyph-name="gcircumflex" unicode="&#x11d;" horiz-adv-x="646" 
d="M490 597h-95l-78 98l-77 -98h-95l118 173h108zM296 522q58 0 102.5 -22.5t66.5 -58.5v72h106v-538q0 -110 -68.5 -174.5t-183.5 -64.5q-110 0 -174.5 50.5t-80.5 137.5l112 4q7 -45 45 -71t95 -26q65 0 104 35.5t39 100.5v94q-22 -32 -65 -51.5t-98 -19.5
q-109 0 -178 72.5t-69 193.5t69 193.5t178 72.5zM314 425q-67 0 -109 -44.5t-42 -124.5t42 -125t109 -45q65 0 105 41t40 115v27q0 74 -40 115t-105 41z" />
    <glyph glyph-name="Gbreve" unicode="&#x11e;" horiz-adv-x="827" 
d="M418 801q-77 0 -123 38t-46 109h92q0 -32 21 -50.5t56 -18.5q36 0 57 18.5t21 50.5h92q0 -71 -46 -109t-124 -38zM775 392v-39q0 -166 -94.5 -264.5t-255.5 -98.5q-163 0 -267.5 103.5t-104.5 280.5q0 178 103.5 281t267.5 103q131 0 225 -69.5t119 -191.5l-123 -20
q-15 82 -74 128.5t-148 46.5q-114 0 -181.5 -71.5t-67.5 -206.5q0 -134 68 -206t181 -72q91 0 150 47.5t73 143.5h-221v105h350z" />
    <glyph glyph-name="gbreve" unicode="&#x11f;" horiz-adv-x="646" 
d="M394 743h92q0 -71 -46 -109t-124 -38q-77 0 -123 38t-46 109h92q0 -32 21 -50.5t56 -18.5q36 0 57 18.5t21 50.5zM296 522q58 0 102.5 -22.5t66.5 -58.5v72h106v-538q0 -110 -68.5 -174.5t-183.5 -64.5q-110 0 -174.5 50.5t-80.5 137.5l112 4q7 -45 45 -71t95 -26
q65 0 104 35.5t39 100.5v94q-22 -32 -65 -51.5t-98 -19.5q-109 0 -178 72.5t-69 193.5t69 193.5t178 72.5zM314 425q-67 0 -109 -44.5t-42 -124.5t42 -125t109 -45q65 0 105 41t40 115v27q0 74 -40 115t-105 41z" />
    <glyph glyph-name="Gdotaccent" unicode="&#x120;" horiz-adv-x="827" 
d="M419 804q-29 0 -50 20.5t-21 50.5q0 29 21 50t50 21t50 -21t21 -50q0 -30 -21 -50.5t-50 -20.5zM775 392v-39q0 -166 -94.5 -264.5t-255.5 -98.5q-163 0 -267.5 103.5t-104.5 280.5q0 178 103.5 281t267.5 103q131 0 225 -69.5t119 -191.5l-123 -20q-15 82 -74 128.5
t-148 46.5q-114 0 -181.5 -71.5t-67.5 -206.5q0 -134 68 -206t181 -72q91 0 150 47.5t73 143.5h-221v105h350z" />
    <glyph glyph-name="gdotaccent" unicode="&#x121;" horiz-adv-x="646" 
d="M317 752q29 0 50 -21t21 -50t-21 -50t-50 -21t-50 21t-21 50t21 50t50 21zM296 522q58 0 102.5 -22.5t66.5 -58.5v72h106v-538q0 -110 -68.5 -174.5t-183.5 -64.5q-110 0 -174.5 50.5t-80.5 137.5l112 4q7 -45 45 -71t95 -26q65 0 104 35.5t39 100.5v94
q-22 -32 -65 -51.5t-98 -19.5q-109 0 -178 72.5t-69 193.5t69 193.5t178 72.5zM314 425q-67 0 -109 -44.5t-42 -124.5t42 -125t109 -45q65 0 105 41t40 115v27q0 74 -40 115t-105 41z" />
    <glyph glyph-name="Gcommaaccent" unicode="&#x122;" horiz-adv-x="827" 
d="M775 392v-39q0 -166 -94.5 -264.5t-255.5 -98.5q-163 0 -267.5 103.5t-104.5 280.5q0 178 103.5 281t267.5 103q131 0 225 -69.5t119 -191.5l-123 -20q-15 82 -74 128.5t-148 46.5q-114 0 -181.5 -71.5t-67.5 -206.5q0 -134 68 -206t181 -72q91 0 150 47.5t73 143.5h-221
v105h350zM420 -47q32 0 49.5 -22t17.5 -58q0 -137 -130 -207v48q51 37 62 97q-29 2 -48.5 22t-19.5 48q0 30 19.5 51t49.5 21z" />
    <glyph glyph-name="gcommaaccent" unicode="&#x123;" horiz-adv-x="646" 
d="M328 723q-29 2 -48.5 22t-19.5 48q0 30 19.5 51t49.5 21q32 0 49.5 -22t17.5 -58q0 -137 -130 -207v48q51 37 62 97zM571 513v-538q0 -110 -68.5 -174.5t-183.5 -64.5q-110 0 -174.5 50.5t-80.5 137.5l112 4q7 -45 45 -71t95 -26q65 0 104 35.5t39 100.5v94
q-22 -32 -65 -51.5t-98 -19.5q-109 0 -178 72.5t-69 193.5t69 193.5t178 72.5q58 0 102.5 -22.5t66.5 -58.5v72h106zM459 242v27q0 74 -40 115t-105 41q-67 0 -109 -44.5t-42 -124.5t42 -125t109 -45q65 0 105 41t40 115z" />
    <glyph glyph-name="Hcircumflex" unicode="&#x124;" horiz-adv-x="757" 
d="M551 795h-96l-76 84l-77 -84h-95l118 150h108zM674 0h-119v333h-352v-333h-119v748h119v-309h352v309h119v-748z" />
    <glyph glyph-name="hcircumflex" unicode="&#x125;" horiz-adv-x="609" 
d="M311 799h-96l-76 84l-77 -84h-95l118 150h108zM193 777v-322q45 67 144 67q89 0 144.5 -57.5t55.5 -155.5v-309h-113v294q0 57 -30.5 90.5t-81.5 33.5q-53 0 -86 -35.5t-33 -89.5v-293h-112v777h112z" />
    <glyph glyph-name="Hbar" unicode="&#x126;" horiz-adv-x="770" 
d="M762 545h-82v-545h-119v333h-352v-333h-119v545h-82v91h82v112h119v-112h352v112h119v-112h82v-91zM561 545h-352v-106h352v106z" />
    <glyph glyph-name="hbar" unicode="&#x127;" horiz-adv-x="609" 
d="M337 522q89 0 144.5 -57.5t55.5 -155.5v-309h-113v294q0 57 -30.5 90.5t-81.5 33.5q-53 0 -86 -35.5t-33 -89.5v-293h-112v605h-77v87h77v85h112v-85h90v-87h-90v-150q45 67 144 67z" />
    <glyph glyph-name="Itilde" unicode="&#x128;" horiz-adv-x="286" 
d="M73 946q34 0 74 -29t61 -29q44 0 46 51h64q4 -55 -23.5 -95t-74.5 -40q-34 0 -74 28.5t-61 28.5q-45 0 -45 -50h-65q-4 55 23.5 95t74.5 40zM203 0h-119v748h119v-748z" />
    <glyph glyph-name="itilde" unicode="&#x129;" 
d="M65 747q34 0 74 -29t61 -29q44 0 46 51h64q4 -55 -23.5 -95.5t-74.5 -40.5q-34 0 -74 29t-61 29q-45 0 -45 -51h-65q-4 56 23.5 96t74.5 40zM193 0h-112v513h112v-513z" />
    <glyph glyph-name="Imacron" unicode="&#x12a;" horiz-adv-x="286" 
d="M286 826h-279v86h279v-86zM203 0h-119v748h119v-748z" />
    <glyph glyph-name="imacron" unicode="&#x12b;" 
d="M279 628h-279v87h279v-87zM193 0h-112v513h112v-513z" />
    <glyph glyph-name="Ibreve" unicode="&#x12c;" horiz-adv-x="286" 
d="M224 948h92q0 -71 -46 -109t-124 -38q-77 0 -123 38t-46 109h92q0 -32 21 -50.5t56 -18.5q36 0 57 18.5t21 50.5zM203 0h-119v748h119v-748z" />
    <glyph glyph-name="ibreve" unicode="&#x12d;" 
d="M217 743h92q0 -71 -46.5 -109t-123.5 -38t-123 38t-46 109h92q0 -32 21 -50.5t56 -18.5q36 0 57 18.5t21 50.5zM193 0h-112v513h112v-513z" />
    <glyph glyph-name="Iogonek" unicode="&#x12e;" horiz-adv-x="286" 
d="M203 0h-50q-42 -22 -62 -41.5t-20 -45.5q0 -41 50 -41q29 0 53 12l11 -56q-39 -17 -83 -17q-51 0 -83 22.5t-32 66.5q0 67 97 108v740h119v-748z" />
    <glyph glyph-name="iogonek" unicode="&#x12f;" 
d="M140 610q-29 0 -50 21t-21 50t21 50t50 21t50 -21t21 -50t-21 -50t-50 -21zM131 -128q29 0 53 12l11 -56q-39 -17 -83 -17q-51 0 -83 22.5t-32 66.5q0 62 84 102v511h112v-513h-30q-42 -22 -62 -41.5t-20 -45.5q0 -41 50 -41z" />
    <glyph glyph-name="Idotaccent" unicode="&#x130;" horiz-adv-x="286" 
d="M147 946q29 0 50 -21t21 -50q0 -30 -21 -50.5t-50 -20.5t-50 20.5t-21 50.5q0 29 21 50t50 21zM203 0h-119v748h119v-748z" />
    <glyph glyph-name="dotlessi" unicode="&#x131;" 
d="M193 0h-112v513h112v-513z" />
    <glyph glyph-name="Jcircumflex" unicode="&#x134;" horiz-adv-x="594" 
d="M635 795h-96l-76 84l-77 -84h-95l118 150h108zM516 748v-498q0 -123 -65.5 -191.5t-180.5 -68.5q-110 0 -176.5 64t-72.5 177l119 19q4 -73 38 -113.5t93 -40.5q61 0 93.5 38.5t32.5 112.5v501h119z" />
    <glyph glyph-name="jcircumflex" unicode="&#x135;" 
d="M309 597h-95l-78 98l-77 -98h-95l118 173h108zM194 513v-578q0 -100 -48 -149t-130 -49q-61 0 -103 26l44 92q25 -18 47 -18q78 0 78 92v584h112z" />
    <glyph glyph-name="Kcommaaccent" unicode="&#x136;" horiz-adv-x="695" 
d="M685 0h-146l-245 340l-91 -105v-235h-119v748h119v-335l291 335h153l-273 -314zM357 -42q32 0 49.5 -22t17.5 -58q0 -137 -130 -207v48q51 37 62 97q-29 2 -48.5 22t-19.5 48q0 30 19.5 51t49.5 21z" />
    <glyph glyph-name="kcommaaccent" unicode="&#x137;" horiz-adv-x="557" 
d="M550 0h-142l-164 208l-51 -52v-156h-112v777h112v-470l199 206h137l-206 -221zM293 -42q32 0 49.5 -22t17.5 -58q0 -137 -130 -207v48q51 37 62 97q-29 2 -48.5 22t-19.5 48q0 30 19.5 51t49.5 21z" />
    <glyph glyph-name="Lacute" unicode="&#x139;" horiz-adv-x="591" 
d="M199 795h-104l139 147h155zM203 106h354v-106h-473v748h119v-642z" />
    <glyph glyph-name="lacute" unicode="&#x13a;" 
d="M193 810h-104l139 147h155zM193 0h-112v777h112v-777z" />
    <glyph glyph-name="Lcommaaccent" unicode="&#x13b;" horiz-adv-x="591" 
d="M557 106v-106h-473v748h119v-642h354zM328 -42q32 0 49.5 -22t17.5 -58q0 -137 -130 -207v48q51 37 62 97q-29 2 -48.5 22t-19.5 48q0 30 19.5 51t49.5 21z" />
    <glyph glyph-name="lcommaaccent" unicode="&#x13c;" 
d="M193 0h-112v777h112v-777zM137 -42q32 0 49.5 -22t17.5 -58q0 -137 -130 -207v48q51 37 62 97q-29 2 -48.5 22t-19.5 48q0 30 19.5 51t49.5 21z" />
    <glyph glyph-name="Lcaron" unicode="&#x13d;" horiz-adv-x="591" 
d="M517 619q-29 2 -48.5 22t-19.5 48q0 30 19.5 51t49.5 21q32 0 49.5 -22t17.5 -58q0 -137 -130 -207v48q51 37 62 97zM203 106h354v-106h-473v748h119v-642z" />
    <glyph glyph-name="lcaron" unicode="&#x13e;" horiz-adv-x="407" 
d="M81 777h112v-777h-112v777zM328 761q32 0 49.5 -22t17.5 -58q0 -137 -130 -207v48q51 37 62 97q-29 2 -48.5 22t-19.5 48q0 30 19.5 51t49.5 21z" />
    <glyph glyph-name="Ldot" unicode="&#x13f;" horiz-adv-x="591" 
d="M203 106h354v-106h-473v748h119v-642zM449 470q30 0 51.5 -21t21.5 -52q0 -29 -21.5 -50t-51.5 -21q-29 0 -50 21t-21 50q0 31 21 52t50 21z" />
    <glyph glyph-name="ldot" unicode="&#x140;" horiz-adv-x="425" 
d="M193 0h-112v777h112v-777zM329 380q30 0 51.5 -21t21.5 -52q0 -29 -21.5 -50t-51.5 -21q-29 0 -50 21t-21 50q0 31 21 52t50 21z" />
    <glyph glyph-name="Lslash" unicode="&#x141;" horiz-adv-x="601" 
d="M569 106v-106h-473v269l-86 -22l-14 91l100 26v384h119v-354l101 26l14 -90l-115 -30v-194h354z" />
    <glyph glyph-name="lslash" unicode="&#x142;" horiz-adv-x="297" 
d="M206 271v-271h-112v235l-89 -28l-21 89l110 35v446h112v-411l87 28l21 -89z" />
    <glyph glyph-name="Nacute" unicode="&#x143;" horiz-adv-x="756" 
d="M425 795h-104l139 147h155zM673 0h-101l-369 528v-528h-119v748h100l370 -529v529h119v-748z" />
    <glyph glyph-name="nacute" unicode="&#x144;" horiz-adv-x="613" 
d="M359 596h-88l95 191h127zM337 522q89 0 144.5 -57.5t55.5 -155.5v-309h-113v294q0 57 -30.5 90.5t-81.5 33.5q-53 0 -86 -35.5t-33 -89.5v-293h-112v513h106v-68q44 77 150 77z" />
    <glyph glyph-name="Ncommaaccent" unicode="&#x145;" horiz-adv-x="756" 
d="M673 748v-748h-101l-369 528v-528h-119v748h100l370 -529v529h119zM386 -42q32 0 49.5 -22t17.5 -58q0 -137 -130 -207v48q51 37 62 97q-29 2 -48.5 22t-19.5 48q0 30 19.5 51t49.5 21z" />
    <glyph glyph-name="ncommaaccent" unicode="&#x146;" horiz-adv-x="613" 
d="M337 522q89 0 144.5 -57.5t55.5 -155.5v-309h-113v294q0 57 -30.5 90.5t-81.5 33.5q-53 0 -86 -35.5t-33 -89.5v-293h-112v513h106v-68q44 77 150 77zM311 -42q32 0 49.5 -22t17.5 -58q0 -137 -130 -207v48q51 37 62 97q-29 2 -48.5 22t-19.5 48q0 30 19.5 51t49.5 21z
" />
    <glyph glyph-name="Ncaron" unicode="&#x147;" horiz-adv-x="756" 
d="M428 795h-108l-118 150h95l77 -83l76 83h96zM673 0h-101l-369 528v-528h-119v748h100l370 -529v529h119v-748z" />
    <glyph glyph-name="ncaron" unicode="&#x148;" horiz-adv-x="613" 
d="M371 595h-108l-118 172h95l77 -98l78 98h95zM337 522q89 0 144.5 -57.5t55.5 -155.5v-309h-113v294q0 57 -30.5 90.5t-81.5 33.5q-53 0 -86 -35.5t-33 -89.5v-293h-112v513h106v-68q44 77 150 77z" />
    <glyph glyph-name="Eng" unicode="&#x14a;" horiz-adv-x="756" 
d="M673 748v-775q0 -101 -67 -164.5t-180 -63.5v105q61 0 94.5 39t33.5 112v25l-351 502v-528h-119v748h100l370 -529v529h119z" />
    <glyph glyph-name="eng" unicode="&#x14b;" horiz-adv-x="613" 
d="M337 522q89 0 144.5 -57.5t55.5 -155.5v-373q0 -92 -53 -144.5t-145 -52.5v98q38 0 61.5 25.5t23.5 70.5v361q0 57 -30.5 90.5t-81.5 33.5q-53 0 -86 -35.5t-33 -89.5v-293h-112v513h106v-68q44 77 150 77z" />
    <glyph glyph-name="Omacron" unicode="&#x14c;" horiz-adv-x="870" 
d="M567 826h-279v86h279v-86zM435 758q166 0 273.5 -104.5t107.5 -279.5t-107.5 -279.5t-273.5 -104.5q-167 0 -274.5 104.5t-107.5 279.5t107.5 279.5t274.5 104.5zM435 652q-115 0 -188 -74.5t-73 -203.5q0 -128 73 -203t188 -75q114 0 187 75t73 203q0 129 -73 203.5
t-187 74.5z" />
    <glyph glyph-name="omacron" unicode="&#x14d;" horiz-adv-x="634" 
d="M455 628h-279v87h279v-87zM317 522q116 0 191.5 -73t75.5 -193t-75.5 -193t-191.5 -73q-117 0 -192.5 73t-75.5 193t75.5 193t192.5 73zM317 426q-68 0 -111 -45.5t-43 -124.5q0 -78 43 -123.5t111 -45.5t111 45.5t43 123.5q0 79 -43 124.5t-111 45.5z" />
    <glyph glyph-name="Obreve" unicode="&#x14e;" horiz-adv-x="870" 
d="M505 948h92q0 -71 -46.5 -109t-123.5 -38t-123 38t-46 109h92q0 -32 21 -50.5t56 -18.5q36 0 57 18.5t21 50.5zM435 758q166 0 273.5 -104.5t107.5 -279.5t-107.5 -279.5t-273.5 -104.5q-167 0 -274.5 104.5t-107.5 279.5t107.5 279.5t274.5 104.5zM435 652
q-115 0 -188 -74.5t-73 -203.5q0 -128 73 -203t188 -75q114 0 187 75t73 203q0 129 -73 203.5t-187 74.5z" />
    <glyph glyph-name="obreve" unicode="&#x14f;" horiz-adv-x="634" 
d="M393 743h92q0 -71 -46.5 -109t-123.5 -38t-123 38t-46 109h92q0 -32 21 -50.5t56 -18.5q36 0 57 18.5t21 50.5zM317 522q116 0 191.5 -73t75.5 -193t-75.5 -193t-191.5 -73q-117 0 -192.5 73t-75.5 193t75.5 193t192.5 73zM317 426q-68 0 -111 -45.5t-43 -124.5
q0 -78 43 -123.5t111 -45.5t111 45.5t43 123.5q0 79 -43 124.5t-111 45.5z" />
    <glyph glyph-name="Ohungarumlaut" unicode="&#x150;" horiz-adv-x="870" 
d="M373 798h-88l61 157h106zM557 798h-88l61 157h106zM435 758q166 0 273.5 -104.5t107.5 -279.5t-107.5 -279.5t-273.5 -104.5q-167 0 -274.5 104.5t-107.5 279.5t107.5 279.5t274.5 104.5zM435 652q-115 0 -188 -74.5t-73 -203.5q0 -128 73 -203t188 -75q114 0 187 75
t73 203q0 129 -73 203.5t-187 74.5z" />
    <glyph glyph-name="ohungarumlaut" unicode="&#x151;" horiz-adv-x="634" 
d="M264 604h-88l62 167h107zM448 604h-88l62 167h107zM317 522q116 0 191.5 -73t75.5 -193t-75.5 -193t-191.5 -73q-117 0 -192.5 73t-75.5 193t75.5 193t192.5 73zM317 426q-68 0 -111 -45.5t-43 -124.5q0 -78 43 -123.5t111 -45.5t111 45.5t43 123.5q0 79 -43 124.5
t-111 45.5z" />
    <glyph glyph-name="OE" unicode="&#x152;" horiz-adv-x="1208" 
d="M815 643v-206h307v-103h-307v-228h351v-106h-470v83q-104 -93 -261 -93q-167 0 -274.5 104.5t-107.5 279.5t107.5 279.5t274.5 104.5q157 0 261 -93v83h470v-105h-351zM435 96q114 0 187 75t73 203q0 129 -73 203.5t-187 74.5q-115 0 -188 -74.5t-73 -203.5
q0 -128 73 -203t188 -75z" />
    <glyph glyph-name="oe" unicode="&#x153;" horiz-adv-x="1016" 
d="M966 214h-377q4 -58 41 -92.5t96 -34.5q100 0 122 73l113 -6q-15 -70 -80 -117t-152 -47q-133 0 -204 91q-75 -91 -208 -91q-117 0 -192.5 73t-75.5 193t75.5 193t192.5 73q131 0 208 -90q70 90 201 90q110 0 175 -68t65 -185v-55zM317 87q64 0 106.5 40.5t46.5 111.5v17
v17q-4 71 -46.5 112t-106.5 41q-68 0 -111 -45.5t-43 -124.5q0 -78 43 -123.5t111 -45.5zM725 426q-57 0 -94 -32.5t-41 -91.5h263q-2 57 -34.5 90.5t-93.5 33.5z" />
    <glyph glyph-name="Racute" unicode="&#x154;" horiz-adv-x="695" 
d="M367 795h-104l139 147h155zM526 0l-158 286h-165v-286h-119v748h302q105 0 170 -60.5t65 -170.5q0 -79 -34.5 -132.5t-94.5 -78.5l168 -306h-134zM202 392h169q56 0 92 32.5t36 92.5q0 61 -36 93.5t-92 32.5h-169v-251z" />
    <glyph glyph-name="racute" unicode="&#x155;" horiz-adv-x="357" 
d="M250 596h-88l95 191h127zM336 519v-109q-65 0 -104 -37t-39 -94v-279h-112v513h109v-72q37 78 146 78z" />
    <glyph glyph-name="Rcommaaccent" unicode="&#x156;" horiz-adv-x="695" 
d="M660 0h-134l-158 286h-165v-286h-119v748h302q105 0 170 -60.5t65 -170.5q0 -79 -34.5 -132.5t-94.5 -78.5zM202 392h169q56 0 92 32.5t36 92.5q0 61 -36 93.5t-92 32.5h-169v-251zM356 -42q32 0 49.5 -22t17.5 -58q0 -137 -130 -207v48q51 37 62 97q-29 2 -48.5 22
t-19.5 48q0 30 19.5 51t49.5 21z" />
    <glyph glyph-name="rcommaaccent" unicode="&#x157;" horiz-adv-x="357" 
d="M190 513v-72q37 78 146 78v-109q-65 0 -104 -37t-39 -94v-279h-112v513h109zM138 -42q32 0 49.5 -22t17.5 -58q0 -137 -130 -207v48q51 37 62 97q-29 2 -48.5 22t-19.5 48q0 30 19.5 51t49.5 21z" />
    <glyph glyph-name="Rcaron" unicode="&#x158;" horiz-adv-x="695" 
d="M262 795l-118 150h95l77 -83l76 83h96l-118 -150h-108zM526 0l-158 286h-165v-286h-119v748h302q105 0 170 -60.5t65 -170.5q0 -79 -34.5 -132.5t-94.5 -78.5l168 -306h-134zM202 392h169q56 0 92 32.5t36 92.5q0 61 -36 93.5t-92 32.5h-169v-251z" />
    <glyph glyph-name="rcaron" unicode="&#x159;" horiz-adv-x="357" 
d="M262 595h-108l-118 172h95l77 -98l78 98h95zM336 519v-109q-65 0 -104 -37t-39 -94v-279h-112v513h109v-72q37 78 146 78z" />
    <glyph glyph-name="Sacute" unicode="&#x15a;" horiz-adv-x="659" 
d="M380 795h-104l139 147h155zM327 758q117 0 189.5 -58t76.5 -159l-121 -7q-3 56 -41.5 88.5t-101.5 32.5q-66 0 -102.5 -31t-36.5 -81q0 -52 36.5 -73.5t129.5 -43.5q132 -32 194 -77.5t62 -137.5q0 -110 -75.5 -165.5t-194.5 -55.5q-126 0 -206.5 60t-84.5 167l121 7
q4 -59 51.5 -95t118.5 -36q68 0 108.5 27t40.5 83q0 52 -40.5 75.5t-138.5 46.5q-59 15 -96 28t-74.5 37t-55.5 60.5t-18 88.5q0 94 67 156.5t192 62.5z" />
    <glyph glyph-name="sacute" unicode="&#x15b;" horiz-adv-x="502" 
d="M285 596h-88l95 191h127zM246 522q88 0 138.5 -45.5t58.5 -117.5l-112 -6q-7 73 -88 73q-80 0 -80 -57q0 -7 1.5 -13t5 -11t7 -8.5t11 -7t12.5 -5.5t16 -5t17.5 -4.5l20 -4.5t21.5 -5q90 -23 133.5 -55t43.5 -96q0 -77 -53.5 -120.5t-147.5 -43.5q-91 0 -146 43.5
t-64 120.5l112 7q9 -74 100 -74q39 0 63 15t24 43q0 30 -22 43t-89 29q-47 11 -73 20t-53.5 25.5t-39.5 42t-12 62.5q0 70 51.5 112.5t143.5 42.5z" />
    <glyph glyph-name="Scircumflex" unicode="&#x15c;" horiz-adv-x="659" 
d="M501 795h-96l-76 84l-77 -84h-95l118 150h108zM327 758q117 0 189.5 -58t76.5 -159l-121 -7q-3 56 -41.5 88.5t-101.5 32.5q-66 0 -102.5 -31t-36.5 -81q0 -52 36.5 -73.5t129.5 -43.5q132 -32 194 -77.5t62 -137.5q0 -110 -75.5 -165.5t-194.5 -55.5q-126 0 -206.5 60
t-84.5 167l121 7q4 -59 51.5 -95t118.5 -36q68 0 108.5 27t40.5 83q0 52 -40.5 75.5t-138.5 46.5q-59 15 -96 28t-74.5 37t-55.5 60.5t-18 88.5q0 94 67 156.5t192 62.5z" />
    <glyph glyph-name="scircumflex" unicode="&#x15d;" horiz-adv-x="502" 
d="M416 597h-95l-78 98l-77 -98h-95l118 173h108zM246 522q88 0 138.5 -45.5t58.5 -117.5l-112 -6q-7 73 -88 73q-80 0 -80 -57q0 -7 1.5 -13t5 -11t7 -8.5t11 -7t12.5 -5.5t16 -5t17.5 -4.5l20 -4.5t21.5 -5q90 -23 133.5 -55t43.5 -96q0 -77 -53.5 -120.5t-147.5 -43.5
q-91 0 -146 43.5t-64 120.5l112 7q9 -74 100 -74q39 0 63 15t24 43q0 30 -22 43t-89 29q-47 11 -73 20t-53.5 25.5t-39.5 42t-12 62.5q0 70 51.5 112.5t143.5 42.5z" />
    <glyph glyph-name="Scedilla" unicode="&#x15e;" horiz-adv-x="659" 
d="M612 211q0 -104 -67.5 -159t-176.5 -61l-9 -36q48 -6 78 -30.5t30 -68.5q0 -53 -39 -81t-96 -28q-55 0 -95 19l19 68q26 -17 66 -17q25 0 43 9.5t18 30.5q0 42 -68 42q-14 0 -34 -4l28 96q-113 8 -183.5 67t-74.5 159l121 7q4 -59 51.5 -95t118.5 -36q68 0 108.5 27
t40.5 83q0 52 -40.5 75.5t-138.5 46.5q-59 15 -96 28t-74.5 37t-55.5 60.5t-18 88.5q0 94 67 156.5t192 62.5q117 0 189.5 -58t76.5 -159l-121 -7q-3 56 -41.5 88.5t-101.5 32.5q-66 0 -102.5 -31t-36.5 -81q0 -52 36.5 -73.5t129.5 -43.5q132 -32 194 -77.5t62 -137.5z" />
    <glyph glyph-name="scedilla" unicode="&#x15f;" horiz-adv-x="502" 
d="M452 154q0 -71 -46 -114t-128 -49l-9 -36q48 -6 78 -30.5t30 -68.5q0 -53 -39 -81t-96 -28q-55 0 -95 19l19 68q26 -17 66 -17q25 0 43 9.5t18 30.5q0 42 -68 42q-14 0 -34 -4l28 96q-77 7 -123.5 50t-54.5 113l112 7q9 -74 100 -74q39 0 63 15t24 43q0 30 -22 43t-89 29
q-47 11 -73 20t-53.5 25.5t-39.5 42t-12 62.5q0 70 51.5 112.5t143.5 42.5q88 0 138.5 -45.5t58.5 -117.5l-112 -6q-7 73 -88 73q-80 0 -80 -57q0 -7 1.5 -13t5 -11t7 -8.5t11 -7t12.5 -5.5t16 -5t17.5 -4.5l20 -4.5t21.5 -5q90 -23 133.5 -55t43.5 -96z" />
    <glyph glyph-name="Scaron" unicode="&#x160;" horiz-adv-x="659" 
d="M383 795h-108l-118 150h95l77 -83l76 83h96zM327 758q117 0 189.5 -58t76.5 -159l-121 -7q-3 56 -41.5 88.5t-101.5 32.5q-66 0 -102.5 -31t-36.5 -81q0 -52 36.5 -73.5t129.5 -43.5q132 -32 194 -77.5t62 -137.5q0 -110 -75.5 -165.5t-194.5 -55.5q-126 0 -206.5 60
t-84.5 167l121 7q4 -59 51.5 -95t118.5 -36q68 0 108.5 27t40.5 83q0 52 -40.5 75.5t-138.5 46.5q-59 15 -96 28t-74.5 37t-55.5 60.5t-18 88.5q0 94 67 156.5t192 62.5z" />
    <glyph glyph-name="scaron" unicode="&#x161;" horiz-adv-x="502" 
d="M297 595h-108l-118 172h95l77 -98l78 98h95zM246 522q88 0 138.5 -45.5t58.5 -117.5l-112 -6q-7 73 -88 73q-80 0 -80 -57q0 -7 1.5 -13t5 -11t7 -8.5t11 -7t12.5 -5.5t16 -5t17.5 -4.5l20 -4.5t21.5 -5q90 -23 133.5 -55t43.5 -96q0 -77 -53.5 -120.5t-147.5 -43.5
q-91 0 -146 43.5t-64 120.5l112 7q9 -74 100 -74q39 0 63 15t24 43q0 30 -22 43t-89 29q-47 11 -73 20t-53.5 25.5t-39.5 42t-12 62.5q0 70 51.5 112.5t143.5 42.5z" />
    <glyph glyph-name="Tcaron" unicode="&#x164;" horiz-adv-x="687" 
d="M400 795h-108l-118 150h95l77 -83l76 83h96zM669 643h-266v-643h-119v643h-266v105h651v-105z" />
    <glyph glyph-name="tcaron" unicode="&#x165;" horiz-adv-x="544" 
d="M464 761q32 0 49.5 -22t17.5 -58q0 -137 -130 -207v48q51 37 62 97q-29 2 -48.5 22t-19.5 48q0 30 19.5 51t49.5 21zM219 416l-1 -235q0 -88 85 -88q18 0 48 5v-100q-38 -6 -75 -6q-79 0 -125 41t-45 125l1 258h-95v97h95l1 174h113l-1 -174h130v-97h-131z" />
    <glyph glyph-name="Tbar" unicode="&#x166;" horiz-adv-x="687" 
d="M403 643v-235h133v-91h-133v-317h-119v317h-133v91h133v235h-266v105h651v-105h-266z" />
    <glyph glyph-name="tbar" unicode="&#x167;" horiz-adv-x="378" 
d="M303 93q18 0 48 5v-100q-38 -6 -75 -6q-79 0 -125 41t-45 125v68h-94v81h95v109h-95v97h95l1 174h113l-1 -174h130v-97h-131v-109h131v-81h-132v-45q0 -88 85 -88z" />
    <glyph glyph-name="Utilde" unicode="&#x168;" horiz-adv-x="770" 
d="M311 946q34 0 74 -29t61 -29q44 0 46 51h64q4 -55 -23.5 -95t-74.5 -40q-34 0 -74 28.5t-61 28.5q-45 0 -45 -50h-65q-4 55 23.5 95t74.5 40zM692 748v-457q0 -143 -82 -222t-225 -79t-225 79t-82 222v457h119v-455q0 -97 48.5 -147t139.5 -50q90 0 139 50.5t49 146.5
v455h119z" />
    <glyph glyph-name="utilde" unicode="&#x169;" horiz-adv-x="596" 
d="M225 747q34 0 74 -29t61 -29q44 0 46 51h64q4 -55 -23.5 -95.5t-74.5 -40.5q-34 0 -74 29t-61 29q-45 0 -45 -51h-65q-4 56 23.5 96t74.5 40zM515 0h-106v67q-16 -32 -53 -54.5t-92 -22.5q-86 0 -137 56.5t-51 150.5v316h112v-299q0 -56 27 -87.5t77 -31.5q51 0 81 36.5
t30 88.5v293h112v-513z" />
    <glyph glyph-name="Umacron" unicode="&#x16a;" horiz-adv-x="770" 
d="M524 826h-279v86h279v-86zM692 748v-457q0 -143 -82 -222t-225 -79t-225 79t-82 222v457h119v-455q0 -97 48.5 -147t139.5 -50q90 0 139 50.5t49 146.5v455h119z" />
    <glyph glyph-name="umacron" unicode="&#x16b;" horiz-adv-x="596" 
d="M439 628h-279v87h279v-87zM515 0h-106v67q-16 -32 -53 -54.5t-92 -22.5q-86 0 -137 56.5t-51 150.5v316h112v-299q0 -56 27 -87.5t77 -31.5q51 0 81 36.5t30 88.5v293h112v-513z" />
    <glyph glyph-name="Ubreve" unicode="&#x16c;" horiz-adv-x="770" 
d="M462 948h92q0 -71 -46 -109t-124 -38q-77 0 -123 38t-46 109h92q0 -32 21 -50.5t56 -18.5q36 0 57 18.5t21 50.5zM692 748v-457q0 -143 -82 -222t-225 -79t-225 79t-82 222v457h119v-455q0 -97 48.5 -147t139.5 -50q90 0 139 50.5t49 146.5v455h119z" />
    <glyph glyph-name="ubreve" unicode="&#x16d;" horiz-adv-x="596" 
d="M377 743h92q0 -71 -46.5 -109t-123.5 -38t-123 38t-46 109h92q0 -32 21 -50.5t56 -18.5q36 0 57 18.5t21 50.5zM515 0h-106v67q-16 -32 -53 -54.5t-92 -22.5q-86 0 -137 56.5t-51 150.5v316h112v-299q0 -56 27 -87.5t77 -31.5q51 0 81 36.5t30 88.5v293h112v-513z" />
    <glyph glyph-name="Uring" unicode="&#x16e;" horiz-adv-x="770" 
d="M385 997q45 0 76 -29t31 -73t-31 -73t-76 -29q-46 0 -77.5 29t-31.5 73t31.5 73t77.5 29zM385 940q-21 0 -34 -12.5t-13 -32.5t13 -32.5t34 -12.5q19 0 32 13t13 32q0 20 -12.5 32.5t-32.5 12.5zM692 748v-457q0 -143 -82 -222t-225 -79t-225 79t-82 222v457h119v-455
q0 -97 48.5 -147t139.5 -50q90 0 139 50.5t49 146.5v455h119z" />
    <glyph glyph-name="uring" unicode="&#x16f;" horiz-adv-x="596" 
d="M300 809q51 0 86 -32t35 -81t-35 -81.5t-86 -32.5t-86.5 32.5t-35.5 81.5t35 81t87 32zM300 744q-23 0 -37 -13.5t-14 -34.5q0 -22 14 -35t37 -13q22 0 36 13t14 35q0 21 -14 34.5t-36 13.5zM515 0h-106v67q-16 -32 -53 -54.5t-92 -22.5q-86 0 -137 56.5t-51 150.5v316
h112v-299q0 -56 27 -87.5t77 -31.5q51 0 81 36.5t30 88.5v293h112v-513z" />
    <glyph glyph-name="Uhungarumlaut" unicode="&#x170;" horiz-adv-x="770" 
d="M330 798h-88l61 157h106zM514 798h-88l61 157h106zM692 748v-457q0 -143 -82 -222t-225 -79t-225 79t-82 222v457h119v-455q0 -97 48.5 -147t139.5 -50q90 0 139 50.5t49 146.5v455h119z" />
    <glyph glyph-name="uhungarumlaut" unicode="&#x171;" horiz-adv-x="596" 
d="M248 604h-88l62 167h107zM432 604h-88l62 167h107zM515 0h-106v67q-16 -32 -53 -54.5t-92 -22.5q-86 0 -137 56.5t-51 150.5v316h112v-299q0 -56 27 -87.5t77 -31.5q51 0 81 36.5t30 88.5v293h112v-513z" />
    <glyph glyph-name="Uogonek" unicode="&#x172;" horiz-adv-x="770" 
d="M692 748v-457q0 -118 -57 -193.5t-160 -98.5q-41 -22 -61 -41t-20 -45q0 -41 50 -41q29 0 53 12l11 -56q-39 -17 -83 -17q-51 0 -83 22.5t-32 66.5q0 55 61 90q-137 4 -215 82.5t-78 218.5v457h119v-455q0 -97 48.5 -147t139.5 -50q90 0 139 50.5t49 146.5v455h119z" />
    <glyph glyph-name="uogonek" unicode="&#x173;" horiz-adv-x="596" 
d="M511 -117l11 -56q-39 -17 -83 -17q-51 0 -83 22.5t-32 66.5q0 62 85 103v65q-16 -32 -53 -54.5t-92 -22.5q-86 0 -137 56.5t-51 150.5v316h112v-299q0 -56 27 -87.5t77 -31.5q51 0 81 36.5t30 88.5v293h112v-513h-23q-44 -24 -64 -43t-20 -45q0 -41 50 -41q29 0 53 12z
" />
    <glyph glyph-name="Wcircumflex" unicode="&#x174;" horiz-adv-x="1121" 
d="M733 795h-96l-76 84l-77 -84h-95l118 150h108zM844 0h-100l-183 529l-182 -529h-101l-261 748h128l185 -537l182 537h98l183 -537l184 537h128z" />
    <glyph glyph-name="wcircumflex" unicode="&#x175;" horiz-adv-x="832" 
d="M589 597h-95l-78 98l-77 -98h-95l118 173h108zM628 0h-90l-122 325l-123 -325h-89l-196 513h121l123 -330l124 330h79l125 -330l123 330h121z" />
    <glyph glyph-name="Ycircumflex" unicode="&#x176;" horiz-adv-x="715" 
d="M530 795h-96l-76 84l-77 -84h-95l118 150h108zM417 301v-301h-118v301l-284 447h138l205 -329l204 329h138z" />
    <glyph glyph-name="ycircumflex" unicode="&#x177;" horiz-adv-x="549" 
d="M448 597h-95l-78 98l-77 -98h-95l118 173h108zM212 -255h-123l126 291l-203 477h125l138 -351l138 351h125z" />
    <glyph glyph-name="Ydieresis" unicode="&#x178;" horiz-adv-x="715" 
d="M275 936q26 0 45 -18.5t19 -44.5q0 -27 -19 -45.5t-45 -18.5q-27 0 -45.5 18.5t-18.5 45.5q0 26 18.5 44.5t45.5 18.5zM443 936q27 0 45.5 -18.5t18.5 -44.5q0 -27 -18.5 -45.5t-45.5 -18.5q-26 0 -45 18.5t-19 45.5q0 26 19 44.5t45 18.5zM417 301v-301h-118v301
l-284 447h138l205 -329l204 329h138z" />
    <glyph glyph-name="Zacute" unicode="&#x179;" horiz-adv-x="621" 
d="M361 795h-104l139 147h155zM577 658l-389 -552h398v-106h-550v90l388 553h-378v105h531v-90z" />
    <glyph glyph-name="zacute" unicode="&#x17a;" horiz-adv-x="451" 
d="M271 596h-88l95 191h127zM409 438l-245 -347h255v-91h-386v74l246 347h-240v92h370v-75z" />
    <glyph glyph-name="Zdotaccent" unicode="&#x17b;" horiz-adv-x="621" 
d="M310 946q29 0 50 -21t21 -50q0 -30 -21 -50.5t-50 -20.5t-50 20.5t-21 50.5q0 29 21 50t50 21zM577 658l-389 -552h398v-106h-550v90l388 553h-378v105h531v-90z" />
    <glyph glyph-name="zdotaccent" unicode="&#x17c;" horiz-adv-x="451" 
d="M229 752q29 0 50 -21t21 -50t-21 -50t-50 -21t-50 21t-21 50t21 50t50 21zM409 438l-245 -347h255v-91h-386v74l246 347h-240v92h370v-75z" />
    <glyph glyph-name="Zcaron" unicode="&#x17d;" horiz-adv-x="621" 
d="M364 795h-108l-118 150h95l77 -83l76 83h96zM577 658l-389 -552h398v-106h-550v90l388 553h-378v105h531v-90z" />
    <glyph glyph-name="zcaron" unicode="&#x17e;" horiz-adv-x="451" 
d="M283 595h-108l-118 172h95l77 -98l78 98h95zM409 438l-245 -347h255v-91h-386v74l246 347h-240v92h370v-75z" />
    <glyph glyph-name="florin" unicode="&#x192;" horiz-adv-x="437" 
d="M350 786q83 0 140 -43l-46 -92q-33 35 -82 35q-69 0 -83 -80l-17 -93h140v-94h-156l-100 -561h-114l99 561h-103v94h120l20 112q14 82 61.5 121.5t120.5 39.5z" />
    <glyph glyph-name="Aringacute" unicode="&#x1fa;" horiz-adv-x="758" 
d="M387 772q-46 0 -77.5 29t-31.5 73q0 54 45 84l127 112h142l-158 -104q60 -27 60 -92q0 -44 -31 -73t-76 -29zM387 829q19 0 32 12.5t13 32.5t-12.5 32.5t-32.5 12.5q-21 0 -34 -12.5t-13 -32.5t13 -32.5t34 -12.5zM746 0h-131l-69 167h-334l-70 -167h-130l316 748h101z
M501 273l-121 291l-122 -291h243z" />
    <glyph glyph-name="aringacute" unicode="&#x1fb;" horiz-adv-x="548" 
d="M277 579q-46 0 -77.5 29t-31.5 73q0 51 40 80l132 116h142l-159 -103q28 -12 44.5 -36.5t16.5 -56.5q0 -44 -31 -73t-76 -29zM277 636q19 0 32 13t13 32q0 20 -12.5 32.5t-32.5 12.5q-21 0 -34 -12.5t-13 -32.5t13 -32.5t34 -12.5zM267 522q99 0 152 -52.5t53 -150.5
v-319h-113v46q-59 -56 -139 -56q-78 0 -124.5 39.5t-46.5 110.5q0 144 188 155l122 7v15q0 107 -91 107q-45 0 -68.5 -25t-23.5 -62l-113 4q0 72 56 126.5t148 54.5zM360 215l-107 -7q-91 -5 -91 -66q0 -58 77 -58q56 0 88.5 28.5t32.5 84.5v18z" />
    <glyph glyph-name="AEacute" unicode="&#x1fc;" horiz-adv-x="1034" 
d="M709 795h-104l139 147h155zM641 643v-206h307v-103h-307v-228h351v-106h-470v167h-259l-111 -167h-145l501 748h484v-105h-351zM522 273v286l-189 -286h189z" />
    <glyph glyph-name="aeacute" unicode="&#x1fd;" horiz-adv-x="906" 
d="M479 596h-88l95 191h127zM857 214h-377q4 -58 41 -92.5t96 -34.5q100 0 122 73l113 -6q-15 -70 -80 -117t-152 -47q-130 0 -202 89q-69 -89 -193 -89q-80 0 -128 40.5t-48 111.5q0 142 188 153l122 7v15q0 109 -91 109q-45 0 -68.5 -25.5t-23.5 -63.5l-113 4
q0 72 56 126.5t148 54.5q111 0 162 -74q71 74 188 74q110 0 175 -68t65 -185v-55zM616 426q-57 0 -94 -32.5t-41 -91.5h263q-2 57 -34.5 90.5t-93.5 33.5zM360 215l-107 -7q-91 -5 -91 -64q0 -57 77 -57q52 0 86.5 25.5t34.5 84.5v18z" />
    <glyph glyph-name="Oslashacute" unicode="&#x1fe;" horiz-adv-x="856" 
d="M479 795h-104l139 147h155zM762 736l-59 -77q113 -108 113 -285q0 -175 -107.5 -279.5t-273.5 -104.5q-115 0 -205 52l-63 -83l-73 55l64 83q-105 107 -105 277q0 175 107.5 279.5t274.5 104.5q107 0 194 -46l60 79zM174 374q0 -111 56 -183l331 432q-56 29 -126 29
q-115 0 -188 -74.5t-73 -203.5zM435 96q114 0 187 75t73 203q0 116 -63 192l-334 -435q59 -35 137 -35z" />
    <glyph glyph-name="oslashacute" unicode="&#x1ff;" horiz-adv-x="634" 
d="M358 596h-88l95 191h127zM549 497l-38 -50q73 -73 73 -191q0 -120 -75.5 -193t-191.5 -73q-71 0 -129 29l-44 -58l-62 46l43 56q-76 74 -76 193q0 120 75.5 193t192.5 73q74 0 131 -30l39 51zM163 256q0 -61 28 -105l196 260q-32 15 -70 15q-68 0 -111 -45.5t-43 -124.5z
M317 87q68 0 111 45.5t43 123.5q0 62 -26 103l-195 -258q31 -14 67 -14z" />
    <glyph glyph-name="Scommaaccent" unicode="&#x218;" horiz-adv-x="659" 
d="M356 426q132 -32 194 -77.5t62 -137.5q0 -110 -75.5 -165.5t-194.5 -55.5q-126 0 -206.5 60t-84.5 167l121 7q4 -59 51.5 -95t118.5 -36q68 0 108.5 27t40.5 83q0 52 -40.5 75.5t-138.5 46.5q-59 15 -96 28t-74.5 37t-55.5 60.5t-18 88.5q0 94 67 156.5t192 62.5
q117 0 189.5 -58t76.5 -159l-121 -7q-3 56 -41.5 88.5t-101.5 32.5q-66 0 -102.5 -31t-36.5 -81q0 -52 36.5 -73.5t129.5 -43.5zM338 -47q32 0 49.5 -22t17.5 -58q0 -137 -130 -207v48q51 37 62 97q-29 2 -48.5 22t-19.5 48q0 30 19.5 51t49.5 21z" />
    <glyph glyph-name="scommaaccent" unicode="&#x219;" horiz-adv-x="502" 
d="M275 305q90 -23 133.5 -55t43.5 -96q0 -77 -53.5 -120.5t-147.5 -43.5q-91 0 -146 43.5t-64 120.5l112 7q9 -74 100 -74q39 0 63 15t24 43q0 30 -22 43t-89 29q-47 11 -73 20t-53.5 25.5t-39.5 42t-12 62.5q0 70 51.5 112.5t143.5 42.5q88 0 138.5 -45.5t58.5 -117.5
l-112 -6q-7 73 -88 73q-80 0 -80 -57q0 -7 1.5 -13t5 -11t7 -8.5t11 -7t12.5 -5.5t16 -5t17.5 -4.5l20 -4.5t21.5 -5zM248 -47q32 0 49.5 -22t17.5 -58q0 -137 -130 -207v48q51 37 62 97q-29 2 -48.5 22t-19.5 48q0 30 19.5 51t49.5 21z" />
    <glyph glyph-name="uni021A" unicode="&#x21a;" horiz-adv-x="687" 
d="M669 748v-105h-266v-643h-119v643h-266v105h651zM344 -42q32 0 49.5 -22t17.5 -58q0 -137 -130 -207v48q51 37 62 97q-29 2 -48.5 22t-19.5 48q0 30 19.5 51t49.5 21z" />
    <glyph glyph-name="uni021B" unicode="&#x21b;" horiz-adv-x="378" 
d="M303 93q18 0 48 5v-100q-38 -6 -75 -6q-79 0 -125 41t-45 125l1 258h-95v97h95l1 174h113l-1 -174h130v-97h-131l-1 -235q0 -88 85 -88zM221 -50q32 0 49.5 -22t17.5 -58q0 -137 -130 -207v48q51 37 62 97q-29 2 -48.5 22t-19.5 48q0 30 19.5 51t49.5 21z" />
    <glyph glyph-name="dotlessj" unicode="&#x237;" 
d="M194 513v-578q0 -100 -48 -149t-130 -49q-61 0 -103 26l44 92q25 -18 47 -18q78 0 78 92v584h112z" />
    <glyph glyph-name="circumflex" unicode="&#x2c6;" horiz-adv-x="370" 
d="M358 597h-95l-78 98l-77 -98h-95l118 173h108z" />
    <glyph glyph-name="caron" unicode="&#x2c7;" horiz-adv-x="370" 
d="M239 595h-108l-118 172h95l77 -98l78 98h95z" />
    <glyph glyph-name="breve" unicode="&#x2d8;" horiz-adv-x="370" 
d="M262 743h92q0 -71 -46 -109t-124 -38q-77 0 -123 38t-46 109h92q0 -32 21 -50.5t56 -18.5q36 0 57 18.5t21 50.5z" />
    <glyph glyph-name="dotaccent" unicode="&#x2d9;" horiz-adv-x="173" 
d="M86 752q29 0 50 -21t21 -50t-21 -50t-50 -21t-50 21t-21 50t21 50t50 21z" />
    <glyph glyph-name="ring" unicode="&#x2da;" horiz-adv-x="272" 
d="M137 809q51 0 86 -32t35 -81t-35 -81.5t-86 -32.5t-86.5 32.5t-35.5 81.5t35 81t87 32zM137 744q-23 0 -37 -13.5t-14 -34.5q0 -22 14 -35t37 -13q22 0 36 13t14 35q0 21 -14 34.5t-36 13.5z" />
    <glyph glyph-name="ogonek" unicode="&#x2db;" horiz-adv-x="233" 
d="M173 30l18 -26q-45 -24 -65.5 -43.5t-20.5 -45.5q0 -41 50 -41q29 0 53 12l11 -56q-39 -17 -83 -17q-51 0 -83 22.5t-32 66.5q0 46 39 75.5t113 52.5z" />
    <glyph glyph-name="tilde" unicode="&#x2dc;" horiz-adv-x="371" 
d="M112 747q34 0 74 -29t61 -29q44 0 46 51h64q4 -55 -23.5 -95.5t-74.5 -40.5q-34 0 -74 29t-61 29q-45 0 -45 -51h-65q-4 56 23.5 96t74.5 40z" />
    <glyph glyph-name="hungarumlaut" unicode="&#x2dd;" horiz-adv-x="380" 
d="M102 604h-88l62 167h107zM286 604h-88l62 167h107z" />
    <glyph glyph-name="uni0326" unicode="&#x326;" horiz-adv-x="0" 
d="M111 -42q32 0 49.5 -22t17.5 -58q0 -137 -130 -207v48q51 37 62 97q-29 2 -48.5 22t-19.5 48q0 30 19.5 51t49.5 21z" />
    <glyph glyph-name="Omega" unicode="&#x3a9;" horiz-adv-x="790" 
d="M395 722q151 0 239 -97.5t88 -248.5q0 -89 -38 -166t-87 -123h171v-87h-292v80q60 41 106 122.5t46 169.5q0 117 -62 190t-171 73t-171 -73t-62 -190q0 -88 46 -169.5t106 -122.5v-80h-292v87h171q-49 46 -87 123t-38 166q0 150 88 248t239 98z" />
    <glyph glyph-name="mu" unicode="&#x3bc;" horiz-adv-x="601" 
d="M520 513v-513h-106v67q-16 -32 -53 -54.5t-92 -22.5q-42 0 -76 14v-259h-112v768h112v-299q0 -56 27 -87.5t77 -31.5q51 0 81 36.5t30 88.5v293h112z" />
    <glyph glyph-name="pi" unicode="&#x3c0;" horiz-adv-x="687" 
d="M573 527l87 -50q-42 -117 -150 -117h-15l-28 -226q-6 -48 32 -48q22 0 47 20l50 -66q-46 -48 -113 -48q-60 0 -86.5 36t-19.5 100l28 232h-111l-26 -208q-12 -85 -45 -152h-105q46 96 57 171l24 189h-28q-52 0 -92 -46l-52 77q35 35 71 52t95 17h261q50 0 76 16.5
t43 50.5z" />
    <glyph glyph-name="Wgrave" unicode="&#x1e80;" horiz-adv-x="1121" 
d="M608 795h-104l-190 147h155zM844 0h-100l-183 529l-182 -529h-101l-261 748h128l185 -537l182 537h98l183 -537l184 537h128z" />
    <glyph glyph-name="wgrave" unicode="&#x1e81;" horiz-adv-x="832" 
d="M457 596h-88l-134 191h128zM628 0h-90l-122 325l-123 -325h-89l-196 513h121l123 -330l124 330h79l125 -330l123 330h121z" />
    <glyph glyph-name="Wacute" unicode="&#x1e82;" horiz-adv-x="1121" 
d="M612 795h-104l139 147h155zM844 0h-100l-183 529l-182 -529h-101l-261 748h128l185 -537l182 537h98l183 -537l184 537h128z" />
    <glyph glyph-name="wacute" unicode="&#x1e83;" horiz-adv-x="832" 
d="M458 596h-88l95 191h127zM628 0h-90l-122 325l-123 -325h-89l-196 513h121l123 -330l124 330h79l125 -330l123 330h121z" />
    <glyph glyph-name="Wdieresis" unicode="&#x1e84;" horiz-adv-x="1121" 
d="M478 936q26 0 45 -18.5t19 -44.5q0 -27 -19 -45.5t-45 -18.5q-27 0 -45.5 18.5t-18.5 45.5q0 26 18.5 44.5t45.5 18.5zM646 936q27 0 45.5 -18.5t18.5 -44.5q0 -27 -18.5 -45.5t-45.5 -18.5q-26 0 -45 18.5t-19 45.5q0 26 19 44.5t45 18.5zM844 0h-100l-183 529
l-182 -529h-101l-261 748h128l185 -537l182 537h98l183 -537l184 537h128z" />
    <glyph glyph-name="wdieresis" unicode="&#x1e85;" horiz-adv-x="832" 
d="M330 743q26 0 45 -18.5t19 -44.5q0 -27 -18.5 -45t-45.5 -18t-45.5 18t-18.5 45q0 26 18.5 44.5t45.5 18.5zM498 743q27 0 45.5 -18.5t18.5 -44.5q0 -27 -18.5 -45t-45.5 -18t-45.5 18t-18.5 45q0 26 19 44.5t45 18.5zM628 0h-90l-122 325l-123 -325h-89l-196 513h121
l123 -330l124 330h79l125 -330l123 330h121z" />
    <glyph glyph-name="Ygrave" unicode="&#x1ef2;" horiz-adv-x="715" 
d="M405 795h-104l-190 147h155zM417 301v-301h-118v301l-284 447h138l205 -329l204 329h138z" />
    <glyph glyph-name="ygrave" unicode="&#x1ef3;" horiz-adv-x="549" 
d="M316 596h-88l-134 191h128zM212 -255h-123l126 291l-203 477h125l138 -351l138 351h125z" />
    <glyph glyph-name="endash" unicode="&#x2013;" horiz-adv-x="564" 
d="M519 209h-474v105h474v-105z" />
    <glyph glyph-name="emdash" unicode="&#x2014;" horiz-adv-x="796" 
d="M751 209h-706v105h706v-105z" />
    <glyph glyph-name="quoteleft" unicode="&#x2018;" horiz-adv-x="201" 
d="M107 616q29 -2 48.5 -22t19.5 -48q0 -30 -19.5 -51t-49.5 -21q-32 0 -49.5 22t-17.5 58q0 137 130 207v-48q-51 -37 -62 -97z" />
    <glyph glyph-name="quoteright" unicode="&#x2019;" horiz-adv-x="201" 
d="M95 761q32 0 49.5 -22t17.5 -58q0 -137 -130 -207v48q51 37 62 97q-29 2 -48.5 22t-19.5 48q0 30 19.5 51t49.5 21z" />
    <glyph glyph-name="quotesinglbase" unicode="&#x201a;" horiz-adv-x="201" 
d="M95 133q32 0 49.5 -22t17.5 -58q0 -137 -130 -207v48q51 37 62 97q-29 2 -48.5 22t-19.5 48q0 30 19.5 51t49.5 21z" />
    <glyph glyph-name="quotedblleft" unicode="&#x201c;" horiz-adv-x="386" 
d="M103 616q29 -2 48.5 -22t19.5 -48q0 -30 -19.5 -51t-49.5 -21q-32 0 -49.5 22t-17.5 58q0 137 130 207v-48q-51 -37 -62 -97zM289 616q29 -2 48.5 -22t19.5 -48q0 -30 -19.5 -51t-49.5 -21q-32 0 -49.5 22t-17.5 58q0 137 130 207v-48q-51 -37 -62 -97z" />
    <glyph glyph-name="quotedblright" unicode="&#x201d;" horiz-adv-x="386" 
d="M91 761q32 0 49.5 -22t17.5 -58q0 -137 -130 -207v48q51 37 62 97q-29 2 -48.5 22t-19.5 48q0 30 19.5 51t49.5 21zM277 761q32 0 49.5 -22t17.5 -58q0 -137 -130 -207v48q51 37 62 97q-29 2 -48.5 22t-19.5 48q0 30 19.5 51t49.5 21z" />
    <glyph glyph-name="quotedblbase" unicode="&#x201e;" horiz-adv-x="386" 
d="M95 133q32 0 49.5 -22t17.5 -58q0 -137 -130 -207v48q51 37 62 97q-29 2 -48.5 22t-19.5 48q0 30 19.5 51t49.5 21zM280 133q32 0 49.5 -22t17.5 -58q0 -137 -130 -207v48q51 37 62 97q-29 2 -48.5 22t-19.5 48q0 30 19.5 51t49.5 21z" />
    <glyph glyph-name="dagger" unicode="&#x2020;" horiz-adv-x="511" 
d="M312 548h181v-101h-181v-514h-112v514h-181v101h181v200h112v-200z" />
    <glyph glyph-name="daggerdbl" unicode="&#x2021;" horiz-adv-x="511" 
d="M312 548h181v-101h-181v-212h181v-102h-181v-200h-112v200h-181v102h181v212h-181v101h181v200h112v-200z" />
    <glyph glyph-name="bullet" unicode="&#x2022;" horiz-adv-x="349" 
d="M175 378q50 0 86 -36t36 -87q0 -52 -36 -88t-86 -36q-52 0 -88 36t-36 88q0 51 36 87t88 36z" />
    <glyph glyph-name="ellipsis" unicode="&#x2026;" horiz-adv-x="692" 
d="M113 134q30 0 51.5 -21t21.5 -52q0 -29 -21.5 -50t-51.5 -21q-29 0 -50 21t-21 50q0 31 21 52t50 21zM339 134q30 0 51.5 -21t21.5 -52q0 -29 -21.5 -50t-51.5 -21q-29 0 -50 21t-21 50q0 31 21 52t50 21zM566 134q30 0 51.5 -21t21.5 -52q0 -29 -21.5 -50t-51.5 -21
q-29 0 -50 21t-21 50q0 31 21 52t50 21z" />
    <glyph glyph-name="perthousand" unicode="&#x2030;" horiz-adv-x="1254" 
d="M204 758q75 0 122 -49.5t47 -132.5q0 -82 -47.5 -132.5t-121.5 -50.5t-121.5 50.5t-47.5 132.5q0 83 47.5 132.5t121.5 49.5zM229 0h-109l513 748h109zM204 679q-38 0 -62 -27.5t-24 -75.5t24 -76t62 -28t62 27.5t24 76.5q0 48 -23.5 75.5t-62.5 27.5zM658 355
q75 0 122 -49.5t47 -132.5q0 -82 -47.5 -132.5t-121.5 -50.5t-121.5 50.5t-47.5 132.5q0 83 47.5 132.5t121.5 49.5zM1050 355q75 0 122 -49.5t47 -132.5q0 -82 -47.5 -132.5t-121.5 -50.5t-121.5 50.5t-47.5 132.5q0 83 47.5 132.5t121.5 49.5zM658 276q-39 0 -62.5 -27.5
t-23.5 -75.5t24 -76t62 -28q39 0 62.5 27.5t23.5 76.5q0 48 -23.5 75.5t-62.5 27.5zM1050 276q-39 0 -62.5 -27.5t-23.5 -75.5t24 -76t62 -28q39 0 62.5 27.5t23.5 76.5q0 48 -23.5 75.5t-62.5 27.5z" />
    <glyph glyph-name="guilsinglleft" unicode="&#x2039;" horiz-adv-x="320" 
d="M302 409l-151 -153l151 -153l-81 -71l-206 224l206 224z" />
    <glyph glyph-name="guilsinglright" unicode="&#x203a;" horiz-adv-x="320" 
d="M306 256l-207 -224l-80 71l151 153l-151 153l80 71z" />
    <glyph glyph-name="fraction" unicode="&#x2044;" horiz-adv-x="208" 
d="M-97 0h-115l518 748h115z" />
    <glyph glyph-name="Euro" unicode="&#x20ac;" horiz-adv-x="706" 
d="M615 154l50 -99q-92 -65 -219 -65q-116 0 -204 69.5t-119 193.5h-114l26 70h76q-2 32 -2 51q0 16 2 48h-102l26 70h87q30 126 119 196t207 70q120 0 205 -64l-37 -98q-67 56 -163 56q-75 0 -129 -41.5t-78 -118.5h327l-26 -70h-315q-2 -30 -2 -48q0 -27 3 -51h273
l-26 -70h-233q24 -76 78.5 -116.5t127.5 -40.5q94 0 162 58z" />
    <glyph glyph-name="trademark" unicode="&#x2122;" horiz-adv-x="887" 
d="M359 668h-125v-279h-83v279h-124v80h332v-80zM824 389h-83v181l-104 -178h-38l-104 178v-181h-83v359h70l136 -235l136 235h70v-359z" />
    <glyph glyph-name="estimated" unicode="&#x212e;" horiz-adv-x="610" 
d="M318 539q108 0 179 -68t71 -190h-400v-176q0 -42 30 -56q44 -35 120 -35q71 0 129 34t95 93l21 -14q-92 -139 -245 -139q-118 0 -197 76.5t-79 197.5q0 123 79 200t197 77zM318 513q-73 0 -121 -35q-29 -13 -29 -54v-118h284v119q0 27 -6 39.5t-25 21.5q-40 27 -103 27z
" />
    <glyph glyph-name="partialdiff" unicode="&#x2202;" horiz-adv-x="614" 
d="M286 758q280 0 280 -460q0 -148 -71 -228.5t-197 -80.5q-107 0 -180.5 70t-73.5 183q0 109 70.5 175t180.5 66q89 0 151 -54q-13 223 -157 223q-88 0 -155 -67l-64 98q98 75 216 75zM306 95q62 0 101.5 40t39.5 105v4q-1 65 -40.5 105.5t-100.5 40.5t-101 -41t-40 -106
q0 -66 39 -107t102 -41z" />
    <glyph glyph-name="product" unicode="&#x220f;" horiz-adv-x="651" 
d="M628 643h-99v-807h-102v807h-204v-807h-101v807h-100v105h606v-105z" />
    <glyph glyph-name="summation" unicode="&#x2211;" horiz-adv-x="600" 
d="M556 643h-371l202 -269l-202 -268h371v-106h-508v87l215 287l-215 287v87h508v-105z" />
    <glyph glyph-name="minus" unicode="&#x2212;" horiz-adv-x="547" 
d="M515 318h-483v105h483v-105z" />
    <glyph glyph-name="radical" unicode="&#x221a;" horiz-adv-x="652" 
d="M626 655l-288 -732l-148 332l-109 -70l-56 89l207 129l104 -248l198 539z" />
    <glyph glyph-name="infinity" unicode="&#x221e;" horiz-adv-x="783" 
d="M568 500q80 0 132 -56.5t52 -138.5q0 -83 -51.5 -139.5t-132.5 -56.5q-99 0 -177 97l-18 22l-18 -22q-78 -82 -158 -82q-74 0 -120 51.5t-46 128.5q0 76 46 128.5t120 52.5q84 0 157 -85l17 -21l15 17q44 52 84.5 78t97.5 26zM568 405q-35 0 -62.5 -20t-59.5 -60l-17 -22
l18 -23q20 -23 35 -37t38.5 -26.5t47.5 -12.5q40 0 64.5 29.5t24.5 71.5t-25 71t-64 29zM199 393q-36 0 -57.5 -25.5t-21.5 -63.5t21.5 -63.5t57.5 -25.5q56 0 104 64l18 24l-18 22q-53 68 -104 68z" />
    <glyph glyph-name="integral" unicode="&#x222b;" horiz-adv-x="338" 
d="M250 758q46 0 95 -15l-19 -86q-28 10 -53 10q-28 0 -40.5 -16.5t-12.5 -54.5v-606q0 -161 -129 -161q-51 0 -96 15l19 86q28 -10 50 -10q31 0 45 17.5t14 55.5v607q0 158 127 158z" />
    <glyph glyph-name="approxequal" unicode="&#x2248;" horiz-adv-x="539" 
d="M472 570l51 -74q-68 -88 -155 -88q-46 0 -101 30t-88 30q-36 0 -61 -12.5t-51 -43.5l-51 75q67 86 152 86q39 0 94 -30t95 -30q38 0 64 13t51 44zM472 331l51 -75q-68 -87 -155 -87q-46 0 -101 30t-88 30q-36 0 -61 -12.5t-51 -43.5l-51 74q68 87 152 87q39 0 94 -30.5
t95 -30.5q37 0 63.5 13.5t51.5 44.5z" />
    <glyph glyph-name="notequal" unicode="&#x2260;" horiz-adv-x="547" 
d="M342 437l-42 -136h215v-106h-247l-39 -125l-96 23l31 102h-132v106h165l41 136h-206v106h239l38 124l97 -23l-31 -101h140v-106h-173z" />
    <glyph glyph-name="lessequal" unicode="&#x2264;" horiz-adv-x="527" 
d="M495 567l-241 -107l241 -107l-1 -115l-466 222l466 222zM495 80h-467v106h467v-106z" />
    <glyph glyph-name="greaterequal" unicode="&#x2265;" horiz-adv-x="527" 
d="M499 460l-466 -222l-1 115l241 107l-241 107l1 115zM499 80h-467v106h467v-106z" />
    <glyph glyph-name="lozenge" unicode="&#x25ca;" horiz-adv-x="546" 
d="M513 346l-204 -401h-72l-205 401l205 402h72zM150 346l124 -240l123 240l-123 240z" />
    <glyph glyph-name="fl" unicode="&#xfb02;" horiz-adv-x="633" 
d="M302 782q24 0 44 -3v-97q-18 2 -32 2q-43 0 -69.5 -26t-26.5 -71v-74h126v-97h-126v-416h-112v416h-97v97h97v71q0 92 53 145t143 53zM552 0h-112v777h112v-777z" />
    <glyph glyph-name="n.001" horiz-adv-x="613" 
d="M339 522q89 0 143.5 -54.5t54.5 -148.5v-319h-113v294q0 57 -30.5 90.5t-81.5 33.5q-53 0 -86 -35.5t-33 -89.5v-293h-112v513h106v-74q15 35 55.5 59t96.5 24z" />
    <glyph glyph-name="germandbls.cap" horiz-adv-x="695" 
d="M333 756q168 0 269 -122l-103 -171q155 -56 155 -225q0 -112 -75.5 -179t-197.5 -67q-55 0 -94 9l23 105q25 -8 66 -8q68 0 111.5 37.5t43.5 101.5q0 75 -50 113t-149 56l116 201q-39 44 -120 44q-57 0 -95 -34.5t-38 -90.5v-526h-119v524q0 105 73 168.5t184 63.5z" />
    <glyph glyph-name="a.sups" horiz-adv-x="448" 
d="M221 756q169 0 169 -163v-256h-95v40q-39 -48 -122 -48q-63 0 -99.5 31t-36.5 88q0 116 171 127l81 5v20q0 33 -17.5 51.5t-50.5 18.5q-35 0 -54.5 -19t-19.5 -46l-99 3q0 58 47.5 103t125.5 45zM290 511l-74 -5q-77 -5 -77 -53q0 -45 56 -47q38 -1 66.5 22t28.5 67v16z
" />
    <glyph glyph-name="b.sups" horiz-adv-x="524" 
d="M163 959v-253q15 22 48.5 36t75.5 14q88 0 143 -58.5t55 -155.5q0 -96 -55 -154.5t-143 -58.5q-45 0 -79.5 15.5t-50.5 39.5v-47h-95v622h101zM270 670q-48 0 -78 -31t-30 -86v-21q0 -55 30 -86t78 -31q51 0 82.5 33.5t31.5 93.5t-31.5 94t-82.5 34z" />
    <glyph glyph-name="c.sups" horiz-adv-x="470" 
d="M246 756q76 0 129 -42t63 -115l-98 -9q-5 37 -30.5 58.5t-63.5 21.5q-48 0 -77 -34t-29 -94q0 -59 29.5 -93t76.5 -34q39 0 64 20.5t30 55.5l98 -9q-11 -71 -63.5 -112t-128.5 -41q-91 0 -149.5 57.5t-58.5 155.5q0 99 58 156.5t150 57.5z" />
    <glyph glyph-name="d.sups" horiz-adv-x="524" 
d="M461 337h-94v47q-16 -24 -51 -39.5t-80 -15.5q-87 0 -142.5 58.5t-55.5 154.5q0 97 55.5 155.5t142.5 58.5q43 0 76.5 -14t48.5 -36v253h100v-622zM253 670q-50 0 -81.5 -34t-31.5 -94t31.5 -93.5t81.5 -33.5q48 0 78 31t30 86v21q0 55 -30 86t-78 31z" />
    <glyph glyph-name="e.sups" horiz-adv-x="477" 
d="M439 507h-294q3 -44 29.5 -68t70.5 -24q74 0 89 56l101 -6q-11 -61 -63.5 -98.5t-124.5 -37.5q-93 0 -151 57.5t-58 155.5q0 99 57.5 156.5t149.5 57.5q89 0 141.5 -54.5t52.5 -149.5v-45zM244 670q-40 0 -66.5 -23.5t-31.5 -63.5h191q-3 39 -27 63t-66 24z" />
    <glyph glyph-name="f.sups" horiz-adv-x="290" 
d="M246 963q22 0 37 -3v-87q-6 2 -25 2q-33 0 -53.5 -20t-20.5 -53v-54h98v-87h-98v-324h-101v324h-76v87h76v52q0 75 44.5 119t118.5 44z" />
    <glyph glyph-name="g.sups" horiz-adv-x="521" 
d="M236 756q45 0 80 -15.5t51 -39.5v47h94v-429q0 -89 -55.5 -141t-148.5 -52q-91 0 -143.5 41t-64.5 112l101 4q4 -34 32.5 -53.5t70.5 -19.5q50 0 79 26.5t29 75.5v67q-36 -50 -125 -50q-87 0 -142.5 58.5t-55.5 154.5q0 97 55.5 155.5t142.5 58.5zM253 670
q-50 0 -81.5 -34t-31.5 -94t31.5 -93.5t81.5 -33.5q48 0 78 31t30 86v21q0 55 -30 86t-78 31z" />
    <glyph glyph-name="h.sups" horiz-adv-x="489" 
d="M163 959v-253q13 20 42 35t70 15q71 0 115 -44t44 -119v-256h-101v233q0 43 -22.5 68t-60.5 25q-39 0 -63 -26.5t-24 -67.5v-232h-101v622h101z" />
    <glyph glyph-name="i.sups" horiz-adv-x="225" 
d="M113 950q25 0 43 -18.5t18 -43.5q0 -26 -18 -43.5t-43 -17.5q-26 0 -44 17.5t-18 43.5t18.5 44t43.5 18zM163 337h-101v411h101v-411z" />
    <glyph glyph-name="j.sups" horiz-adv-x="225" 
d="M112 950q26 0 44 -18t18 -44t-18 -43.5t-44 -17.5t-43.5 17.5t-17.5 43.5t18 44t43 18zM163 748v-458q0 -75 -43.5 -118.5t-116.5 -43.5q-16 0 -38 2v88q11 -3 26 -3q33 0 52.5 19.5t19.5 53.5v460h100z" />
    <glyph glyph-name="k.sups" horiz-adv-x="453" 
d="M163 590l148 158h122l-162 -178l179 -233h-126l-123 160l-38 -41v-119h-101v622h101v-369z" />
    <glyph glyph-name="l.sups" horiz-adv-x="224" 
d="M163 337h-101v622h101v-622z" />
    <glyph glyph-name="m.sups" horiz-adv-x="746" 
d="M532 756q71 0 113 -43.5t42 -119.5v-256h-101v233q0 44 -20.5 68.5t-57.5 24.5q-39 0 -61 -26t-22 -68v-232h-101v233q0 44 -20.5 68.5t-58.5 24.5t-60 -26t-22 -68v-232h-101v411h95v-43q32 51 113 51q92 0 132 -68q40 68 130 68z" />
    <glyph glyph-name="n.sups" horiz-adv-x="492" 
d="M275 756q71 0 115 -44t44 -119v-256h-101v233q0 43 -22.5 68t-60.5 25q-39 0 -63 -26.5t-24 -67.5v-232h-101v411h95v-43q13 20 44.5 35.5t73.5 15.5z" />
    <glyph glyph-name="o.sups" horiz-adv-x="509" 
d="M254 756q94 0 155 -59t61 -155t-61 -154.5t-155 -58.5t-155 58.5t-61 154.5t61 155t155 59zM254 670q-50 0 -82 -34.5t-32 -93.5t31.5 -93t82.5 -34t83.5 34t32.5 93t-32.5 93.5t-83.5 34.5z" />
    <glyph glyph-name="p.sups" horiz-adv-x="524" 
d="M287 756q88 0 143 -58.5t55 -155.5q0 -96 -55 -154.5t-143 -58.5q-42 0 -75.5 14t-48.5 36v-246h-101v615h95v-47q16 24 50.5 39.5t79.5 15.5zM270 670q-48 0 -78 -31t-30 -86v-21q0 -55 30 -86t78 -31q51 0 82.5 33.5t31.5 93.5t-31.5 94t-82.5 34z" />
    <glyph glyph-name="q.sups" horiz-adv-x="524" 
d="M236 756q45 0 80 -15.5t51 -39.5v47h94v-615h-100v246q-15 -22 -48.5 -36t-76.5 -14q-87 0 -142.5 58.5t-55.5 154.5q0 97 55.5 155.5t142.5 58.5zM253 670q-50 0 -81.5 -34t-31.5 -94t31.5 -93.5t81.5 -33.5q48 0 78 31t30 86v21q0 55 -30 86t-78 31z" />
    <glyph glyph-name="r.sups" horiz-adv-x="288" 
d="M275 753v-97q-51 0 -81.5 -28.5t-30.5 -72.5v-218h-101v411h97v-43q36 48 116 48z" />
    <glyph glyph-name="s.sups" horiz-adv-x="403" 
d="M197 756q73 0 114.5 -37t47.5 -98l-100 -6q-5 55 -62 55q-59 0 -59 -41q0 -8 3 -13.5t7.5 -9t13.5 -7t16.5 -5t22 -5t24.5 -5.5q72 -18 106.5 -44t34.5 -78q0 -62 -44 -97.5t-121 -35.5q-75 0 -119.5 36t-51.5 100l101 6q5 -56 70 -56q64 0 64 43q0 20 -16 28.5t-69 20.5
q-76 17 -109 41t-33 81q0 59 42 93t117 34z" />
    <glyph glyph-name="t.sups" horiz-adv-x="303" 
d="M248 420q18 0 38 4v-90q-32 -4 -63 -4q-66 0 -104 33.5t-37 102.5l1 195h-76v87h76l1 139h101l-1 -139h101v-87h-102l-1 -180q0 -61 66 -61z" />
    <glyph glyph-name="u.sups" horiz-adv-x="479" 
d="M417 337h-95v43q-34 -51 -113 -51q-71 0 -111 41.5t-40 116.5v261h101v-237q0 -88 76 -88q38 0 60 24t22 63v238h100v-411z" />
    <glyph glyph-name="v.sups" horiz-adv-x="447" 
d="M263 337h-79l-178 411h110l108 -255l107 255h110z" />
    <glyph glyph-name="w.sups" horiz-adv-x="672" 
d="M509 337h-78l-95 254l-95 -254h-77l-158 411h110l93 -249l93 249h69l93 -249l93 249h109z" />
    <glyph glyph-name="x.sups" horiz-adv-x="432" 
d="M288 546l136 -209h-119l-89 135l-85 -135h-121l135 208l-132 203h120l83 -130l84 130h119z" />
    <glyph glyph-name="y.sups" horiz-adv-x="447" 
d="M176 133h-110l103 240l-160 375h110l105 -255l104 255h110z" />
    <glyph glyph-name="z.sups" horiz-adv-x="365" 
d="M330 678l-188 -260h196v-81h-312v69l188 260h-184v82h300v-70z" />
    <glyph glyph-name="zero.onum" horiz-adv-x="649" 
d="M324 601q125 0 200.5 -82.5t75.5 -222.5q0 -141 -75.5 -223.5t-200.5 -82.5t-200.5 82.5t-75.5 223.5q0 140 75.5 222.5t200.5 82.5zM325 496q-72 0 -113 -53t-41 -147t41 -147t113 -53q71 0 112 53t41 147q0 93 -41 146.5t-112 53.5z" />
    <glyph glyph-name="one.onum" horiz-adv-x="381" 
d="M296 0h-118v443l-121 -94l-50 94l202 147h87v-590z" />
    <glyph glyph-name="two.onum" horiz-adv-x="539" 
d="M276 600q108 0 164.5 -54t56.5 -148q0 -66 -35.5 -116.5t-101.5 -101.5l-98 -74h242v-106h-450v91l213 157q33 24 45 33.5t32 29.5t27 40t7 45q0 98 -99 98q-52 0 -80 -32t-29 -91l-119 6q1 105 61 164t164 59z" />
    <glyph glyph-name="three.onum" horiz-adv-x="562" 
d="M278 600q104 0 163.5 -57t59.5 -154q0 -114 -99 -160q50 -14 82.5 -59.5t32.5 -111.5q0 -105 -65 -165.5t-172 -60.5q-112 0 -174 59t-67 164l119 7q10 -124 121 -124q56 0 87 32t31 90q0 57 -34 86t-92 29h-75v106h73q49 0 80.5 29t31.5 79q0 51 -27 78t-76 27
q-50 0 -78.5 -30.5t-31.5 -85.5l-118 6q3 101 62.5 158.5t165.5 57.5z" />
    <glyph glyph-name="four.onum" horiz-adv-x="599" 
d="M458 105h117v-106h-117v-157h-117v157h-314v98l331 493h100v-485zM158 105h182v270z" />
    <glyph glyph-name="five.onum" horiz-adv-x="564" 
d="M294 308q100 0 163 -62t63 -171q0 -110 -65 -176.5t-177 -66.5q-108 0 -170 57.5t-67 157.5l119 7q10 -116 119 -116q58 0 90 37t32 97t-32 95t-87 35q-58 0 -105 -36h-110v424h424v-105h-306v-204q46 27 109 27z" />
    <glyph glyph-name="six.onum" horiz-adv-x="599" 
d="M497 748l-193 -263q110 -2 181.5 -70.5t71.5 -178.5q0 -111 -72.5 -178.5t-183.5 -67.5q-112 0 -184.5 67.5t-72.5 178.5q0 84 53 158l258 354h142zM301 96q60 0 98 39t38 105t-37.5 103.5t-98.5 37.5q-72 0 -108 -48q-28 -37 -28 -93q0 -66 37.5 -105t98.5 -39z" />
    <glyph glyph-name="seven.onum" horiz-adv-x="540" 
d="M513 494l-325 -652h-131l325 643h-361v105h492v-96z" />
    <glyph glyph-name="eight.onum" horiz-adv-x="606" 
d="M302 758q102 0 167.5 -55t65.5 -150q0 -107 -92 -156q51 -25 81 -72t30 -110q0 -103 -70.5 -164t-180.5 -61t-180.5 61t-70.5 164q0 63 29.5 109.5t80.5 71.5q-92 48 -92 157q0 95 65 150t167 55zM303 652q-50 0 -82 -28t-32 -77q0 -48 32.5 -75.5t81.5 -27.5
q50 0 82 27.5t32 75.5q0 49 -32 77t-82 28zM302 340q-57 0 -94.5 -32.5t-37.5 -89.5q0 -56 37.5 -89t94.5 -33q58 0 95.5 33t37.5 89q0 57 -37 89.5t-96 32.5z" />
    <glyph glyph-name="nine.onum" horiz-adv-x="599" 
d="M298 600q112 0 184.5 -67.5t72.5 -178.5q0 -84 -53 -158l-258 -354h-142l193 263q-110 2 -181.5 70.5t-71.5 178.5q0 111 72.5 178.5t183.5 67.5zM298 209q72 0 108 48q28 37 28 93q0 66 -37.5 105t-98.5 39q-60 0 -98 -39t-38 -105t38 -103.5t98 -37.5z" />
    <glyph glyph-name="zero.slash" horiz-adv-x="648" 
d="M324 758q126 0 200.5 -100.5t74.5 -283.5q0 -182 -75 -283t-200 -101q-126 0 -201 101t-75 283q0 183 75 283.5t201 100.5zM324 652q-155 0 -155 -278q0 -106 24 -174l215 421q-32 31 -84 31zM324 96q154 0 154 278q0 103 -23 169l-214 -418q34 -29 83 -29z" />
    <glyph glyph-name="zero.subs" horiz-adv-x="371" 
d="M186 337q71 0 113.5 -55.5t42.5 -155.5q0 -101 -42.5 -156.5t-113.5 -55.5t-114 56t-43 156t43 155.5t114 55.5zM185 260q-68 0 -68 -134t68 -134t68 134t-68 134z" />
    <glyph glyph-name="one.subs" horiz-adv-x="228" 
d="M187 -80h-87v297l-60 -45l-37 70l129 89h55v-411z" />
    <glyph glyph-name="two.subs" horiz-adv-x="316" 
d="M156 337q65 0 98.5 -35t33.5 -93q0 -70 -69 -146l-62 -66h134v-77h-264v60l129 137q45 47 45 93q0 23 -11 36.5t-32 13.5q-48 0 -48 -56l-85 5q1 60 36 94t95 34z" />
    <glyph glyph-name="three.subs" horiz-adv-x="326" 
d="M160 337q61 0 95 -31.5t34 -87.5q0 -60 -52 -85q26 -9 42.5 -33t16.5 -59q0 -59 -37.5 -93t-98.5 -34q-64 0 -99 33.5t-37 91.5l87 6q5 -53 49 -53q23 0 36 13.5t13 37.5q0 50 -54 50h-42v74h41q21 0 35.5 12.5t14.5 34.5t-12 34t-32 12q-43 0 -45 -50l-85 5
q1 58 34.5 90t95.5 32z" />
    <glyph glyph-name="four.subs" horiz-adv-x="348" 
d="M275 76h55v-78h-55v-78h-87v78h-172v68l176 265h83v-255zM93 76h96v137z" />
    <glyph glyph-name="five.subs" horiz-adv-x="322" 
d="M171 182q56 0 91.5 -34.5t35.5 -96.5q0 -63 -37.5 -100t-101.5 -37q-61 0 -96.5 32.5t-37.5 87.5l86 5q5 -47 49 -47q24 0 37.5 15.5t13.5 41.5t-13.5 40.5t-37.5 14.5q-23 0 -44 -16h-77v243h242v-77h-155v-81q18 9 45 9z" />
    <glyph glyph-name="six.subs" horiz-adv-x="347" 
d="M297 331l-102 -142q55 -6 90 -43.5t35 -93.5q0 -62 -41 -100t-104 -38q-64 0 -105.5 38t-41.5 100q0 44 30 89l134 190h105zM174 -8q26 0 42 17t16 46t-15.5 44.5t-42.5 15.5q-32 0 -46 -20q-12 -17 -12 -40q0 -29 16 -46t42 -17z" />
    <glyph glyph-name="seven.subs" horiz-adv-x="315" 
d="M293 264l-162 -344h-96l158 334h-176v77h276v-67z" />
    <glyph glyph-name="eight.subs" horiz-adv-x="349" 
d="M174 337q58 0 96 -31.5t38 -85.5q0 -50 -39 -81q50 -32 50 -97q0 -59 -40.5 -93.5t-103.5 -34.5q-64 0 -104.5 34.5t-40.5 93.5q0 63 49 96q-39 34 -39 82q0 54 38 85.5t96 31.5zM175 260q-23 0 -38 -13t-15 -35t15 -34t38 -12t37 12t14 34q0 23 -14.5 35.5t-36.5 12.5z
M175 95q-25 0 -41.5 -13.5t-16.5 -38.5q0 -24 16.5 -37.5t41.5 -13.5t41 13.5t16 37.5q0 25 -16 38.5t-41 13.5z" />
    <glyph glyph-name="nine.subs" horiz-adv-x="347" 
d="M173 337q64 0 105.5 -38t41.5 -100q0 -45 -31 -89l-133 -190h-105l102 142q-55 6 -90 43.5t-35 93.5q0 62 41 100t104 38zM174 136q30 0 46 20q12 17 12 40q0 29 -16 46.5t-42 17.5t-42.5 -17t-16.5 -46t16 -45t43 -16z" />
    <glyph glyph-name="zero.sups" horiz-adv-x="371" 
d="M186 819q71 0 113.5 -55.5t42.5 -155.5q0 -101 -42.5 -156.5t-113.5 -55.5t-114 56t-43 156t43 155.5t114 55.5zM185 742q-68 0 -68 -134t68 -134t68 134t-68 134z" />
    <glyph glyph-name="one.sups" horiz-adv-x="228" 
d="M187 402h-87v297l-60 -45l-37 70l129 89h55v-411z" />
    <glyph glyph-name="two.sups" horiz-adv-x="316" 
d="M156 819q65 0 98.5 -35t33.5 -93q0 -70 -69 -146l-62 -66h134v-77h-264v60l129 137q45 47 45 93q0 23 -11 36.5t-32 13.5q-48 0 -48 -56l-85 5q1 60 36 94t95 34z" />
    <glyph glyph-name="three.sups" horiz-adv-x="326" 
d="M160 819q61 0 95 -31.5t34 -87.5q0 -60 -52 -85q26 -9 42.5 -33t16.5 -59q0 -59 -37.5 -93t-98.5 -34q-64 0 -99 33.5t-37 91.5l87 6q5 -53 49 -53q23 0 36 13.5t13 37.5q0 50 -54 50h-42v74h41q21 0 35.5 12.5t14.5 34.5t-12 34t-32 12q-43 0 -45 -50l-85 5
q1 58 34.5 90t95.5 32z" />
    <glyph glyph-name="four.sups" horiz-adv-x="348" 
d="M275 558h55v-78h-55v-78h-87v78h-172v68l176 265h83v-255zM93 558h96v137z" />
    <glyph glyph-name="five.sups" horiz-adv-x="322" 
d="M171 664q56 0 91.5 -34.5t35.5 -96.5q0 -63 -37.5 -100t-101.5 -37q-61 0 -96.5 32.5t-37.5 87.5l86 5q5 -47 49 -47q24 0 37.5 15.5t13.5 41.5t-13.5 40.5t-37.5 14.5q-23 0 -44 -16h-77v243h242v-77h-155v-81q18 9 45 9z" />
    <glyph glyph-name="six.sups" horiz-adv-x="347" 
d="M297 813l-102 -142q55 -6 90 -43.5t35 -93.5q0 -62 -41 -100t-104 -38q-64 0 -105.5 38t-41.5 100q0 44 30 89l134 190h105zM174 474q26 0 42 17t16 46t-15.5 44.5t-42.5 15.5q-32 0 -46 -20q-12 -17 -12 -40q0 -29 16 -46t42 -17z" />
    <glyph glyph-name="seven.sups" horiz-adv-x="315" 
d="M293 746l-162 -344h-96l158 334h-176v77h276v-67z" />
    <glyph glyph-name="eight.sups" horiz-adv-x="349" 
d="M174 819q58 0 96 -31.5t38 -85.5q0 -50 -39 -81q50 -32 50 -97q0 -59 -40.5 -93.5t-103.5 -34.5q-64 0 -104.5 34.5t-40.5 93.5q0 63 49 96q-39 34 -39 82q0 54 38 85.5t96 31.5zM175 742q-23 0 -38 -13t-15 -35t15 -34t38 -12t37 12t14 34q0 23 -14.5 35.5t-36.5 12.5z
M175 577q-25 0 -41.5 -13.5t-16.5 -38.5q0 -24 16.5 -37.5t41.5 -13.5t41 13.5t16 37.5q0 25 -16 38.5t-41 13.5z" />
    <glyph glyph-name="nine.sups" horiz-adv-x="347" 
d="M173 819q64 0 105.5 -38t41.5 -100q0 -45 -31 -89l-133 -190h-105l102 142q-55 6 -90 43.5t-35 93.5q0 62 41 100t104 38zM174 618q30 0 46 20q12 17 12 40q0 29 -16 46.5t-42 17.5t-42.5 -17t-16.5 -46t16 -45t43 -16z" />
    <glyph glyph-name="zero.tnum" horiz-adv-x="650" 
d="M325 758q126 0 200.5 -100.5t74.5 -283.5q0 -182 -75 -283t-200 -101q-126 0 -201 101t-75 283q0 183 75 283.5t201 100.5zM325 652q-155 0 -155 -278t155 -278q154 0 154 278t-154 278z" />
    <glyph glyph-name="one.tnum" horiz-adv-x="650" 
d="M419 106h144v-106h-422v106h159v485l-123 -86l-54 90l209 153h87v-642z" />
    <glyph glyph-name="two.tnum" horiz-adv-x="650" 
d="M328 758q105 0 163 -55.5t58 -155.5q0 -85 -36.5 -151.5t-104.5 -140.5l-139 -149h287v-106h-451v98l215 230q64 68 87 110t23 104q0 51 -26 80.5t-73 29.5q-107 0 -109 -130l-119 7q2 108 61 168.5t164 60.5z" />
    <glyph glyph-name="three.tnum" horiz-adv-x="650" 
d="M324 758q104 0 163.5 -57t59.5 -154q0 -114 -99 -160q50 -14 82.5 -59.5t32.5 -111.5q0 -105 -65 -165.5t-172 -60.5q-112 0 -174 59t-67 164l119 7q10 -124 121 -124q56 0 87 32t31 90q0 57 -34 86t-92 29h-75v106h73q49 0 80.5 29t31.5 79q0 51 -27 78t-76 27
q-50 0 -78.5 -30.5t-31.5 -85.5l-118 6q3 101 62.5 158.5t165.5 57.5z" />
    <glyph glyph-name="four.tnum" horiz-adv-x="650" 
d="M478 263h117v-106h-117v-157h-117v157h-314v98l331 493h100v-485zM178 263h182v270z" />
    <glyph glyph-name="five.tnum" horiz-adv-x="650" 
d="M336 466q100 0 163 -62t63 -171q0 -110 -65 -176.5t-177 -66.5q-108 0 -170 57.5t-67 157.5l119 7q10 -116 119 -116q58 0 90 37t32 97t-32 95t-87 35q-58 0 -105 -36h-110v424h424v-105h-306v-204q46 27 109 27z" />
    <glyph glyph-name="six.tnum" horiz-adv-x="650" 
d="M519 748l-193 -263q110 -2 181.5 -70.5t71.5 -178.5q0 -111 -72.5 -178.5t-183.5 -67.5q-112 0 -184.5 67.5t-72.5 178.5q0 84 53 158l258 354h142zM323 96q60 0 98 39t38 105t-37.5 103.5t-98.5 37.5q-72 0 -108 -48q-28 -37 -28 -93q0 -66 37.5 -105t98.5 -39z" />
    <glyph glyph-name="seven.tnum" horiz-adv-x="650" 
d="M562 652l-325 -652h-131l325 643h-361v105h492v-96z" />
    <glyph glyph-name="eight.tnum" horiz-adv-x="650" 
d="M324 758q102 0 167.5 -55t65.5 -150q0 -107 -92 -156q51 -25 81 -72t30 -110q0 -103 -70.5 -164t-180.5 -61t-180.5 61t-70.5 164q0 63 29.5 109.5t80.5 71.5q-92 48 -92 157q0 95 65 150t167 55zM325 652q-50 0 -82 -28t-32 -77q0 -48 32.5 -75.5t81.5 -27.5
q50 0 82 27.5t32 75.5q0 49 -32 77t-82 28zM324 340q-57 0 -94.5 -32.5t-37.5 -89.5q0 -56 37.5 -89t94.5 -33q58 0 95.5 33t37.5 89q0 57 -37 89.5t-96 32.5z" />
    <glyph glyph-name="nine.tnum" horiz-adv-x="650" 
d="M327 758q112 0 184.5 -67.5t72.5 -178.5q0 -84 -53 -158l-258 -354h-142l193 263q-110 2 -181.5 70.5t-71.5 178.5q0 111 72.5 178.5t183.5 67.5zM327 367q72 0 108 48q28 37 28 93q0 66 -37.5 105t-98.5 39q-60 0 -98 -39t-38 -105t37.5 -103.5t98.5 -37.5z" />
    <glyph glyph-name="zero.dnom" horiz-adv-x="371" 
d="M186 417q71 0 113.5 -55.5t42.5 -155.5q0 -101 -42.5 -156.5t-113.5 -55.5t-114 56t-43 156t43 155.5t114 55.5zM185 340q-68 0 -68 -134t68 -134t68 134t-68 134z" />
    <glyph glyph-name="one.dnom" horiz-adv-x="228" 
d="M187 0h-87v297l-60 -45l-37 70l129 89h55v-411z" />
    <glyph glyph-name="two.dnom" horiz-adv-x="316" 
d="M156 417q65 0 98.5 -35t33.5 -93q0 -70 -69 -146l-62 -66h134v-77h-264v60l129 137q45 47 45 93q0 23 -11 36.5t-32 13.5q-48 0 -48 -56l-85 5q1 60 36 94t95 34z" />
    <glyph glyph-name="three.dnom" horiz-adv-x="326" 
d="M160 417q61 0 95 -31.5t34 -87.5q0 -60 -52 -85q26 -9 42.5 -33t16.5 -59q0 -59 -37.5 -93t-98.5 -34q-64 0 -99 33.5t-37 91.5l87 6q5 -53 49 -53q23 0 36 13.5t13 37.5q0 50 -54 50h-42v74h41q21 0 35.5 12.5t14.5 34.5t-12 34t-32 12q-43 0 -45 -50l-85 5
q1 58 34.5 90t95.5 32z" />
    <glyph glyph-name="four.dnom" horiz-adv-x="348" 
d="M275 156h55v-78h-55v-78h-87v78h-172v68l176 265h83v-255zM93 156h96v137z" />
    <glyph glyph-name="five.dnom" horiz-adv-x="322" 
d="M171 262q56 0 91.5 -34.5t35.5 -96.5q0 -63 -37.5 -100t-101.5 -37q-61 0 -96.5 32.5t-37.5 87.5l86 5q5 -47 49 -47q24 0 37.5 15.5t13.5 41.5t-13.5 40.5t-37.5 14.5q-23 0 -44 -16h-77v243h242v-77h-155v-81q18 9 45 9z" />
    <glyph glyph-name="six.dnom" horiz-adv-x="347" 
d="M297 411l-102 -142q55 -6 90 -43.5t35 -93.5q0 -62 -41 -100t-104 -38q-64 0 -105.5 38t-41.5 100q0 44 30 89l134 190h105zM174 72q26 0 42 17t16 46t-15.5 44.5t-42.5 15.5q-32 0 -46 -20q-12 -17 -12 -40q0 -29 16 -46t42 -17z" />
    <glyph glyph-name="seven.dnom" horiz-adv-x="315" 
d="M293 344l-162 -344h-96l158 334h-176v77h276v-67z" />
    <glyph glyph-name="eight.dnom" horiz-adv-x="349" 
d="M174 417q58 0 96 -31.5t38 -85.5q0 -50 -39 -81q50 -32 50 -97q0 -59 -40.5 -93.5t-103.5 -34.5q-64 0 -104.5 34.5t-40.5 93.5q0 63 49 96q-39 34 -39 82q0 54 38 85.5t96 31.5zM175 340q-23 0 -38 -13t-15 -35t15 -34t38 -12t37 12t14 34q0 23 -14.5 35.5t-36.5 12.5z
M175 175q-25 0 -41.5 -13.5t-16.5 -38.5q0 -24 16.5 -37.5t41.5 -13.5t41 13.5t16 37.5q0 25 -16 38.5t-41 13.5z" />
    <glyph glyph-name="nine.dnom" horiz-adv-x="347" 
d="M173 417q64 0 105.5 -38t41.5 -100q0 -45 -31 -89l-133 -190h-105l102 142q-55 6 -90 43.5t-35 93.5q0 62 41 100t104 38zM174 216q30 0 46 20q12 17 12 40q0 29 -16 46.5t-42 17.5t-42.5 -17t-16.5 -46t16 -45t43 -16z" />
    <glyph glyph-name="zero.numr" horiz-adv-x="371" 
d="M186 738q71 0 113.5 -55.5t42.5 -155.5q0 -101 -42.5 -156.5t-113.5 -55.5t-114 56t-43 156t43 155.5t114 55.5zM185 661q-68 0 -68 -134t68 -134t68 134t-68 134z" />
    <glyph glyph-name="one.numr" horiz-adv-x="228" 
d="M187 322h-87v297l-60 -45l-37 70l129 89h55v-411z" />
    <glyph glyph-name="two.numr" horiz-adv-x="316" 
d="M156 738q65 0 98.5 -35t33.5 -93q0 -70 -69 -146l-62 -66h134v-77h-264v60l129 137q45 47 45 93q0 23 -11 36.5t-32 13.5q-48 0 -48 -56l-85 5q1 60 36 94t95 34z" />
    <glyph glyph-name="three.numr" horiz-adv-x="326" 
d="M160 738q61 0 95 -31.5t34 -87.5q0 -60 -52 -85q26 -9 42.5 -33t16.5 -59q0 -59 -37.5 -93t-98.5 -34q-64 0 -99 33.5t-37 91.5l87 6q5 -53 49 -53q23 0 36 13.5t13 37.5q0 50 -54 50h-42v74h41q21 0 35.5 12.5t14.5 34.5t-12 34t-32 12q-43 0 -45 -50l-85 5
q1 58 34.5 90t95.5 32z" />
    <glyph glyph-name="four.numr" horiz-adv-x="348" 
d="M275 477h55v-78h-55v-78h-87v78h-172v68l176 265h83v-255zM93 477h96v137z" />
    <glyph glyph-name="five.numr" horiz-adv-x="322" 
d="M171 584q56 0 91.5 -34.5t35.5 -96.5q0 -63 -37.5 -100t-101.5 -37q-61 0 -96.5 32.5t-37.5 87.5l86 5q5 -47 49 -47q24 0 37.5 15.5t13.5 41.5t-13.5 40.5t-37.5 14.5q-23 0 -44 -16h-77v243h242v-77h-155v-81q18 9 45 9z" />
    <glyph glyph-name="six.numr" horiz-adv-x="347" 
d="M297 732l-102 -142q55 -6 90 -43.5t35 -93.5q0 -62 -41 -100t-104 -38q-64 0 -105.5 38t-41.5 100q0 44 30 89l134 190h105zM174 393q26 0 42 17t16 46t-15.5 44.5t-42.5 15.5q-32 0 -46 -20q-12 -17 -12 -40q0 -29 16 -46t42 -17z" />
    <glyph glyph-name="seven.numr" horiz-adv-x="315" 
d="M293 666l-162 -344h-96l158 334h-176v77h276v-67z" />
    <glyph glyph-name="eight.numr" horiz-adv-x="349" 
d="M174 738q58 0 96 -31.5t38 -85.5q0 -50 -39 -81q50 -32 50 -97q0 -59 -40.5 -93.5t-103.5 -34.5q-64 0 -104.5 34.5t-40.5 93.5q0 63 49 96q-39 34 -39 82q0 54 38 85.5t96 31.5zM175 661q-23 0 -38 -13t-15 -35t15 -34t38 -12t37 12t14 34q0 23 -14.5 35.5t-36.5 12.5z
M175 496q-25 0 -41.5 -13.5t-16.5 -38.5q0 -24 16.5 -37.5t41.5 -13.5t41 13.5t16 37.5q0 25 -16 38.5t-41 13.5z" />
    <glyph glyph-name="nine.numr" horiz-adv-x="347" 
d="M173 738q64 0 105.5 -38t41.5 -100q0 -45 -31 -89l-133 -190h-105l102 142q-55 6 -90 43.5t-35 93.5q0 62 41 100t104 38zM174 537q30 0 46 20q12 17 12 40q0 29 -16 46.5t-42 17.5t-42.5 -17t-16.5 -46t16 -45t43 -16z" />
    <glyph glyph-name="periodcentered.cap" horiz-adv-x="240" 
d="M113 497q30 0 51.5 -21t21.5 -52q0 -29 -21.5 -50t-51.5 -21q-29 0 -50 21t-21 50q0 31 21 52t50 21z" />
    <glyph glyph-name="exclamdown.cap" horiz-adv-x="299" 
d="M151 614q-30 0 -51.5 21t-21.5 52q0 29 21.5 50t51.5 21q29 0 50 -21t21 -50q0 -31 -21 -52t-50 -21zM91 534h119l6 -534h-131z" />
    <glyph glyph-name="questiondown.cap" horiz-adv-x="516" 
d="M261 614q-30 0 -51.5 21t-21.5 52q0 29 21.5 50t51.5 21q29 0 50 -21t21 -50q0 -31 -21 -52t-50 -21zM257 -11q-111 0 -175 60.5t-64 159.5q0 59 26 96t77 76q42 32 60.5 59t18.5 65v29h119v-34q0 -47 -23.5 -83t-72.5 -76q-42 -33 -62.5 -61.5t-20.5 -68.5q0 -53 31 -85
t86 -32t86.5 30.5t36.5 85.5l119 -8q-5 -98 -70.5 -155.5t-171.5 -57.5z" />
    <glyph glyph-name="braceleft.cap" 
d="M252 676h-6q-48 0 -63 -34t-1 -113q6 -40 7 -73t-14 -55.5t-49 -27.5q49 -8 59.5 -53.5t-3.5 -103.5q-13 -79 1.5 -113t62.5 -34h6v-94h-6q-100 0 -149.5 59.5t-25.5 171.5q18 59 10.5 89.5t-54.5 30.5h-8v93h8q47 0 54.5 30.5t-10.5 89.5q-24 112 25.5 171.5t149.5 59.5
h6v-94z" />
    <glyph glyph-name="braceright.cap" 
d="M22 770h6q101 0 150 -59.5t25 -171.5q-17 -59 -10 -89.5t54 -30.5h8v-93h-8q-47 0 -54 -30.5t10 -89.5q24 -112 -25 -171.5t-150 -59.5h-6v94h6q48 0 62.5 34t1.5 113q-14 58 -3.5 103.5t59.5 53.5q-34 5 -49 27.5t-14 55.5t7 73q14 79 -1 113t-63 34h-6v94z" />
    <glyph glyph-name="bracketleft.cap" horiz-adv-x="283" 
d="M262 676h-94v-607h94v-94h-206v795h206v-94z" />
    <glyph glyph-name="bracketright.cap" horiz-adv-x="292" 
d="M228 -25h-206v94h94v607h-94v94h206v-795z" />
    <glyph glyph-name="parenleft.cap" 
d="M159 773l97 -34q-105 -174 -105 -377q0 -202 105 -376l-97 -35q-120 182 -120 411q0 231 120 411z" />
    <glyph glyph-name="parenright.cap" horiz-adv-x="271" 
d="M19 739l97 34q120 -180 120 -411q0 -229 -120 -411l-97 35q105 174 105 376q0 203 -105 377z" />
    <glyph glyph-name="emdash.cap" horiz-adv-x="796" 
d="M751 324h-706v105h706v-105z" />
    <glyph glyph-name="endash.cap" horiz-adv-x="564" 
d="M519 324h-474v105h474v-105z" />
    <glyph glyph-name="hyphen.cap" horiz-adv-x="404" 
d="M359 324h-314v105h314v-105z" />
    <glyph glyph-name="guillemotleft.cap" horiz-adv-x="553" 
d="M276 555l-135 -170l135 -171l-89 -56l-172 227l172 226zM534 555l-135 -170l135 -171l-89 -56l-172 227l172 226z" />
    <glyph glyph-name="guillemotright.cap" horiz-adv-x="553" 
d="M280 385l-172 -227l-89 56l135 171l-135 170l89 56zM537 385l-172 -227l-89 56l135 171l-135 170l89 56z" />
    <glyph glyph-name="guilsinglleft.cap" horiz-adv-x="320" 
d="M302 538l-151 -153l151 -153l-81 -71l-206 224l206 224z" />
    <glyph glyph-name="guilsinglright.cap" horiz-adv-x="320" 
d="M306 385l-207 -224l-80 71l151 153l-151 153l80 71z" />
    <glyph glyph-name="emdash_guilsinglright" horiz-adv-x="867" 
d="M832 259l-234 -248l-79 71l125 131h-599v93h598l-124 129l79 71z" />
    <glyph glyph-name="endash_guilsinglright" horiz-adv-x="602" 
d="M567 259l-234 -248l-79 71l126 131h-335v93h333l-124 129l79 71z" />
    <glyph glyph-name="guilsinglleft_emdash" horiz-adv-x="867" 
d="M348 435l-124 -129h598v-93h-600l126 -131l-79 -71l-234 248l234 247z" />
    <glyph glyph-name="guilsinglleft_endash" horiz-adv-x="602" 
d="M348 435l-124 -129h333v-93h-336l127 -131l-79 -71l-234 248l234 247z" />
    <glyph glyph-name="at.cap" horiz-adv-x="812" 
d="M406 736q158 0 261.5 -103t103.5 -260q0 -100 -41 -152.5t-113 -52.5q-75 0 -97 55q-47 -58 -135 -58q-85 0 -137 57t-52 152q0 96 52 153t137 57q93 0 129 -55v42h82v-282q0 -49 42 -49q29 0 47 35t18 98q0 128 -85 213t-212 85q-129 0 -213 -85t-84 -213
q0 -131 85 -213.5t207 -82.5q105 0 183 47l18 -63q-83 -50 -201 -50q-153 0 -256.5 101.5t-103.5 260.5q0 157 103 260t262 103zM510 364v21q0 59 -30 90.5t-81 31.5q-52 0 -83.5 -35t-31.5 -98t31.5 -98t83.5 -35q51 0 81 32t30 91z" />
    <glyph glyph-name="acute.case" horiz-adv-x="324" 
d="M118 797h-104l139 147h155z" />
    <glyph glyph-name="breve.case" horiz-adv-x="370" 
d="M262 950h92q0 -71 -46 -109t-124 -38q-77 0 -123 38t-46 109h92q0 -32 21 -50.5t56 -18.5q36 0 57 18.5t21 50.5z" />
    <glyph glyph-name="caron.case" horiz-adv-x="372" 
d="M240 797h-108l-118 150h95l77 -83l76 83h96z" />
    <glyph glyph-name="circumflex.case" horiz-adv-x="372" 
d="M358 797h-96l-76 84l-77 -84h-95l118 150h108z" />
    <glyph glyph-name="dieresis.case" horiz-adv-x="328" 
d="M80 938q26 0 45 -18.5t19 -44.5q0 -27 -19 -45.5t-45 -18.5q-27 0 -45.5 18.5t-18.5 45.5q0 26 18.5 44.5t45.5 18.5zM248 938q27 0 45.5 -18.5t18.5 -44.5q0 -27 -18.5 -45.5t-45.5 -18.5q-26 0 -45 18.5t-19 45.5q0 26 19 44.5t45 18.5z" />
    <glyph glyph-name="dotaccent.case" horiz-adv-x="173" 
d="M86 948q29 0 50 -21t21 -50q0 -30 -21 -50.5t-50 -20.5t-50 20.5t-21 50.5q0 29 21 50t50 21z" />
    <glyph glyph-name="grave.case" horiz-adv-x="324" 
d="M309 797h-104l-190 147h155z" />
    <glyph glyph-name="hungarumlaut.case" horiz-adv-x="378" 
d="M101 800h-88l61 157h106zM285 800h-88l61 157h106z" />
    <glyph glyph-name="macron.case" horiz-adv-x="304" 
d="M291 828h-279v86h279v-86z" />
    <glyph glyph-name="ring.case" horiz-adv-x="248" 
d="M125 999q45 0 76 -29t31 -73t-31 -73t-76 -29q-46 0 -77.5 29t-31.5 73t31.5 73t77.5 29zM125 942q-21 0 -34 -12.5t-13 -32.5t13 -32.5t34 -12.5q19 0 32 13t13 32q0 20 -12.5 32.5t-32.5 12.5z" />
    <glyph glyph-name="tilde.case" horiz-adv-x="371" 
d="M112 948q34 0 74 -29t61 -29q44 0 46 51h64q4 -55 -23.5 -95t-74.5 -40q-34 0 -74 28.5t-61 28.5q-45 0 -45 -50h-65q-4 55 23.5 95t74.5 40z" />
    <glyph glyph-name="anneau" horiz-adv-x="588" 
d="M295 760q112 0 188 -73t76 -181t-76 -181t-188 -73q-114 0 -190 73t-76 181t76 181t190 73zM294 720q-96 0 -158 -60.5t-62 -153.5t62 -153.5t158 -60.5q95 0 157.5 60.5t62.5 153.5q0 92 -62.5 153t-157.5 61z" />
    <glyph glyph-name="null" horiz-adv-x="600" 
 />
    </font>
</defs>
</svg>
